Лисичка-сваха / Enmusubi no Youko-chan / Fox Spirit Matchmaker [TV] [24 из 24] [Без хардсаба] [JAP+SUB] [2017, комедия, фэнтези, WEBRip] [720p]

Ответить на тему
Статистика раздачи [Обновить пиров]
Размер:  11.33 GB   |    Зарегистрирован:  14 дней   |    Скачан:  0 раз

Полного источника не было: Никогда

 
   
 
 
 
Автор Сообщение

torrentc.info

Создавать темы 01-Дек-2018 18:19

[Цитировать]

[img]https://i107.fastpic.ru/big/2018/1127/e5/625377a2d5...3d37e5.png[/img]-[img=right]https://i108.fastpic.ru/big/2018/1127/6c/43c8409acc...7d5d6c.jpg[/img]Лисичка-сваха
Enmusubi no Youko-chan
Fox Spirit Matchmaker
-Страна: Япония
Год выхода: 2017
Жанр: комедия, фэнтези
Тип: TV
Продолжительность: 24 эп., ~25 мин. серия
Режиссёр: Wang Xin
Студия: EMON-Описание:Тосан Сусу хочет стать настоящим духом-лисицей. Однако ни красивым личиком, ни умом она особо не блещет, в отличие от её лисиц-сородичей, а потому её старшая сестра, Тосан Яя, задумала выдать Сусу замуж. Тогда Сусу сбегает – ведь такой расклад ей совсем не по душе – и попадает на шоу «Волнующее сватовство». Там она встречает молодого человека по имени Хаку Гессё, который соглашается помочь ей с заданием по сватовству – за определённую плату. Теперь будущее Сусу зависит от того, как хорошо она справится!© crunchyroll-AniDB-Качество: WEBRip
Тип релиза: Без хардсаба
Формат файла: MKV
Наличие линковки: Нет
: [Erai-raws]
Видео: 1280x720, x264, 2 429 kb/s, 23.976 fps, 8 бит
Аудио: AAC, 128 kb/s, 2 ch, 44.1 kHz; язык японский
Субтитры: внешние, язык субтитров русский; перевод: [Crunchyroll]

Подробные тех. данные

Format : MatroskaFormat version : Version 4 / Version 2File size : 434 MiBDuration : 23 min 41 sOverall bit rate : 2 559 kb/sEncoded date : UTC 2018-11-26 05:07:20Writing application : mkvmerge v28.2.0 ('The Awakening') 64-bitWriting library : libebml v1.3.6 + libmatroska v1.4.9
VideoID : 1Format : AVCFormat/Info : Advanced Video CodecFormat profile : High@L4Format settings : CABAC / 6 Ref FramesFormat settings, CABAC : YesFormat settings, ReFrames : 6 framesCodec ID : V_MPEG4/ISO/AVCDuration : 23 min 41 sBit rate : 2 429 kb/sWidth : 1 280 pixelsHeight : 720 pixelsDisplay aspect ratio : 16:9Frame rate mode : ConstantFrame rate : 23.976 (24000/1001) FPSColor space : YUVChroma subsampling : 4:2:0Bit depth : 8 bitsScan type : ProgressiveBits/(Pixel*Frame) : 0.110Stream size : 411 MiB (95%)Writing library : x264 core 142Encoding settings : cabac=1 / ref=6 / deblock=1:1:1 / analyse=0x3:0x113 / me=umh / subme=8 / psy=1 / psy_rd=0.40:0.00 / mixed_ref=1 / me_range=16 / chroma_me=1 / trellis=1 / 8x8dct=1 / cqm=0 / deadzone=21,11 / fast_pskip=1 / chroma_qp_offset=-2 / threads=10 / lookahead_threads=1 / sliced_threads=0 / nr=0 / decimate=1 / interlaced=0 / bluray_compat=0 / constrained_intra=0 / bframes=3 / b_pyramid=2 / b_adapt=2 / b_bias=0 / direct=3 / weightb=1 / open_gop=0 / weightp=2 / keyint=48 / keyint_min=24 / scenecut=40 / intra_refresh=0 / rc_lookahead=48 / rc=crf / mbtree=1 / crf=15.0 / qcomp=0.60 / qpmin=0 / qpmax=69 / qpstep=4 / vbv_maxrate=4000 / vbv_bufsize=6000 / crf_max=0.0 / nal_hrd=none / filler=0 / ip_ratio=1.40 / aq=1:0.60Default : YesForced : No
AudioID : 2Format : AAC LCFormat/Info : Advanced Audio Codec Low ComplexityCodec ID : A_AAC-2Duration : 23 min 41 sBit rate : 128 kb/sChannel(s) : 2 channelsChannel layout : L RSampling rate : 44.1 kHzFrame rate : 43.066 FPS (1024 SPF)Compression mode : LossyDelay relative to video : -83 msStream size : 21.7 MiB (5%)Language : JapaneseDefault : YesForced : No

Список эпизодов

1. Лисица Сусу
2. Ожившие воспоминания
3. Клятвенное сокровище
4. Их чувства
5. Раненое сердце
6. Причина недоразумения
7. Книга реинкарнации
8. Поддельные слёзы
9. Окэн Фуки
10. Меч Окэна
11. Тохо Гессё
12. Принцесса Юга
13. Абсолютный нуль
14. Бог золотого пламени
15. Кровь рода Тохо
16. Решение Тохо Гессё
17. Клятвы на древе горя
18. Тайна Коко
19. Раны на сердце
20. Планы на Танабату
21. Мотивы императора северных гор
22. Слёзы пустоты против слёз пустоты
23. Король распада, император северных гор
24. Мечта Сусу


[torrentc.info]_t_5650832.torrent
Торрент: Зарегистрирован ·  [ 2018-12-01 18:19 ] ·  41f776de1d304ef5041bcaa4bc2b2a9871985838

61 KB

Статус: проверено
Скачан: 0 раз
Размер: 11.33 GB
Оценка: 
(Голосов: 0)
Сказали спасибо: 0  Спасибо
Похожие темы
[Профиль]    [ЛС]
Показать сообщения:    
Ответить на тему

Текущее время: Сегодня 13:36

Часовой пояс: GMT + 7



Вы не можете начинать темы
Вы не можете отвечать на сообщения
Вы не можете редактировать свои сообщения
Вы не можете удалять свои сообщения
Вы не можете голосовать в опросах
Вы не можете прикреплять файлы к сообщениям
Вы можете скачивать файлы