Строй-ка / Stroy-ka [2010, позновательное, TVRip]

Ответить на тему
Статистика раздачи [Обновить пиров]
Размер:  4.28 GB   |    Зарегистрирован:  15 дней   |    Скачан:  0 раз

Полного источника не было: Никогда

 
   
 
 
 
Автор Сообщение

torrentc.info

Создавать темы 30-Ноя-2018 22:31

[Цитировать]

Строй-ка / Stroy-ka
Год выхода: 2010
Страна: Россия
Жанр: позновательное
Продолжительность: 11:52:29
Перевод: Не требуется
Автор: Андрей Довгопол, Андрей Курышев
Описание: Строительство собственного дома – дело не легкое, и для многих, увы, практически невозможное. Нет, наверное, на земле такого человека, который при возведении собственного дома не сталкивался с огромным количеством проблем, не задавался самыми разными вопросами.
Как выбрать участок?
Какому типу строения отдать предпочтение?
Кому доверить строительство?
Да и обслуживание загородного дома, так же несет в себе массу не только трудностей, но и больших затрат. Однако, всего этого можно и нужно избегать.
На самые злободневные вопросы ответят квалифицированные эксперты, мы побываем на реальных стройках, на которых поучимся на чужих ошибках или порадуемся изобретательности и предусмотрительности хозяев.
Ведь недаром говорят – предупрежден – значит вооружен!
Программа «Стройка» - надежная защита современного застройщика!
качество: TVRip
формат: MKV
видеокодек: H.264
аудиокодек: AAC
Видео: MKV, 682 x 480, fps 23.81 некоторые серии в формате flv
Аудио: 44100 Hz, 16 bit, 2 chanels

Список выпусков/серий

02 Правда о газосиликате
03 Консервация стройки на зиму
04 Стены 30% затрат
05 Гидравлические, теплые полы
06 Маленькие хитрости кирпичного дома
07 Как построить дорогу
08 Несъемная опалубка
09 Пенополистирол мифы и реальность
10 Из чего строить дом
11 Ошибки строителей
12 Реконструкция дома
13 Реставрация и утепление дома
14 Все для зимнего дома
15 Стройка перед зимой
16 Строим дом быстро!
17 Отопление дома
18 Отопление дома
19 Гидравлический теплый пол
20 Гидравлический пол
21 Из чего строить стены
22 Стройка перед зимой!
23 Энергоэффективность дома
24 Пенополистирол за и против
25 Как провести электричество
26 Энергетический баланс дома
27 Система очистки воды
28 Отключение электричества
29 Чистая вода

Скриншоты



Отчет MediaInfo

Общее
Полное имя : \Стройка\12 Реконструкция дома.mkv
Формат файла : WebM
Версия формата : Version 2
Размер файла : 221 Мбайт
Продолжительность : 26 м.
Режим общего битрейта : Переменный
Общий поток : 1189 Кбит/сек
Программа кодирования : google
Библиотека кодирования : google
Видео
Идентификатор : 1
Формат файла : VP8
Идентификатор кодека : V_VP8
Продолжительность : 26 м.
Битрейт : 1005 Кбит/сек
Ширина : 682 пикселя
Высота : 480 пикселей
Соотношение сторон : 1,421
Режим частоты кадров : Постоянный
Частота кадров : 25,000 кадров/сек
Метод сжатия : С потерями
Бит/(Пиксели*Кадры) : 0.123
Размер потока : 187 Мбайт (85%)
Язык : English
Default : Да
Forced : Нет
Аудио
Идентификатор : 2
Формат файла : Vorbis
Параметр Floor формата : 1
Идентификатор кодека : A_VORBIS
Продолжительность : 26 м.
Вид битрейта : Переменный
Битрейт : 128 Кбит/сек
Каналы : 2 канала
Частота : 44,1 КГц
Метод сжатия : С потерями
Размер потока : 23,8 Мбайт (11%)
Default : Да
Forced : Нет


[torrentc.info]_t_4321326.torrent
Торрент: Зарегистрирован ·  [ 2018-11-30 22:28 ] ·  3b5a50f14b44f368659f766ce16601d9e700aa6a

13 KB

Статус: проверено
Скачан: 0 раз
Размер: 4.28 GB
Оценка: 
(Голосов: 0)
Сказали спасибо: 0  Спасибо
Похожие темы
[Профиль]    [ЛС]
Показать сообщения:    
Ответить на тему

Текущее время: Сегодня 13:08

Часовой пояс: GMT + 7



Вы не можете начинать темы
Вы не можете отвечать на сообщения
Вы не можете редактировать свои сообщения
Вы не можете удалять свои сообщения
Вы не можете голосовать в опросах
Вы не можете прикреплять файлы к сообщениям
Вы можете скачивать файлы