[ATV3] Опасный пассажир / Ride (Джереми Ангар / Jeremy Ungar ) [2018, США, Триллер, WEB-DL, HD (1080p)] DUB + Original + sub (eng)

Ответить на тему
Статистика раздачи [Обновить пиров]
Размер:  3.06 GB   |    Зарегистрирован:  16 дней   |    Скачан:  0 раз

Полного источника не было: Никогда

 
   
 
 
 
Автор Сообщение

torrentc.info

Создавать темы 30-Ноя-2018 00:23

[Цитировать]

Опасный пассажир / Ride
«Some Rides Should Never Be Shared»
4.824 / 10 4.20 / 10
-[img=right]https://d.radikal.ru/d18/1811/5b/8334995b57b9.jpg[/img]
Год выхода: 2018
Страна: США
Жанр: Триллер
Продолжительность: 01:16:27
Перевод: Дублированный (iTunes)
Оригинальная аудиодорожка: Есть
Cубтитры: Английские
Режиссёр: Джереми Ангар
Сценарий: Джереми Ангар
Продюсер: Сефтон Финчэм, Тайлер Джексон, Кет Кьярвал
Оператор: Роб Гивенс
Композитор: Пол Хаслингер
Художник: Фрэнсис Линн Эрнандес, Чарлиз Антониетта Джонс
Монтаж: Кайла Эмтер
В ролях: Белла Торн, Джесси Ашер, Уилл Брилл, Байрон Л. Хопкинс, Хейли Кеанна Лаутенбах, Сара Линдсей
Мировая премьера: 12 сентября 2018
Цифровой релиз: 15 ноября 2018, «Вольга»
Описание: Когда Джеймс, водитель Uber, и его пассажирка Джессика остановились, чтобы подвезти харизматичного Бруно, они не знали, что этот спокойный вечер обернётся для них гонкой на выживание.-Качество Источник: Torrentcа: WEB-DL 1080p (NNMClub)
Качество: WEB-DL
Тип: HD (1080p)
Формат файла: M4V
Видео: H.264, 1912x792, 2.40:1, 4 629 Kbps, 23.976 fps
Аудио 1: Русский/Дублированный (iTunes), AAC / 2.0 / 160 Kbps / 48.0 KHz
Аудио 2: Английский/Оригинальная дорожка , AAC / 2.0 / 160 Kbps / 48.0 KHz
Аудио 3: Русский/Дублированный (iTunes), AC-3 / 5.1 / 384 Kbps / 48.0 KHz
Аудио 4: Английский/Оригинальная дорожка , AC-3 / 5.1 / 384 Kbps / 48.0 KHz
Субтитры: Английские полные
-

iTunes Meta Tags

Sort Name: Ride
XID: Apple:vendor_id:2018-1009783
contentID: 1436338507
Copyright: © 2017 UFF2 Ride Movie LLC. All Rights Reserved.
Screenwriters: Джереми Ангар
Producers: Сефтон Финчэм, Тайлер Джексон, Кет Кьярвал
Director: Джереми Ангар
Cast: Белла Торн, Джесси Ашер, Уилл Брилл, Байрон Л. Хопкинс, Хейли Кеанна Лаутенбах, Сара Линдсей
Studio: RLJE Films
Rating: 0
Long Description: Когда Джеймс, водитель Убера, и его пассажирка Джессика остановились, чтобы подвезти харизматичного Бруно, они не знали, что этот спокойный вечер обернётся для них гонкой на выживание.
Description: Когда Джеймс, водитель Убера, и его пассажирка Джессика остановились, чтобы подвезти харизматичного Бруно, они не знали, что этот спокойный вечер обернётся для них гонкой на выживание.
Release Date: 2018-09-12T08:00:00Z
Genre: Thriller
Artist: Jeremy Ungar
Name: Ride

MediaInfo

General
Complete name : /Users/imac/HandBrake/Ride.WEB-DL.1080p.m4v
Format : MPEG-4
Codec ID : M4V
File size : 3.06 GiB
Duration : 1h 16mn
Overall bit rate mode : Variable
Overall bit rate : 5 721 Kbps
Movie name : Ride
Performer : Jeremy Ungar
Director : Джереми Ангар
Actor : Белла Торн / Джесси Ашер / Уилл Брилл / Байрон Л. Хопкинс / Хейли Кеанна Лаутенбах / Сара Линдсей
Screenplay by : Джереми Ангар
Producer : Сефтон Финчэм / Тайлер Джексон / Кет Кьярвал
Production studio : RLJE Films
Genre : Thriller
ContentType : Short Film
Description : Когда Джеймс, водитель Убера, и его пассажирка Джессика остановились, чтобы подвезти харизматичного Бруно, они не знали, что этот спокойный вечер обернётся для них гонкой на выживание.
Recorded date : UTC 2018-09-12 08:00:00
Encoded date : UTC 2018-11-19 17:40:05
Tagged date : UTC 2018-11-19 17:41:03
Copyright : © 2017 UFF2 Ride Movie LLC. All Rights Reserved.
Cover : Yes
Rating : None
Title/Sort : Ride
LongDescription : Когда Джеймс, водитель Убера, и его пассажирка Джессика остановились, чтобы подвезти харизматичного Бруно, они не знали, что этот спокойный вечер обернётся для них гонкой на выживание.
AppleStoreCatalogID : 1436338507
Vendor : Apple:vendor_id:2018-1009783
ContentRating : mpaa|Unrated|???|
Video #1
ID : 1
Format : AVC
Format/Info : Advanced Video Codec
Format profile : High@L4
Format settings, CABAC : Yes
Format settings, ReFrames : 5 frames
Codec ID : avc1
Codec ID/Info : Advanced Video Coding
Duration : 1h 16mn
Bit rate : 4 629 Kbps
Width : 1 912 pixels
Height : 792 pixels
Display aspect ratio : 2.40:1
Frame rate mode : Variable
Frame rate : 23.976 fps
Minimum frame rate : 23.810 fps
Maximum frame rate : 24.390 fps
Color space : YUV
Chroma subsampling : 4:2:0
Bit depth : 8 bits
Scan type : Progressive
Bits/(Pixel*Frame) : 0.127
Stream size : 2.47 GiB (81%)
Title : Main Program
Language : English
Encoded date : UTC 2018-11-19 17:40:05
Tagged date : UTC 2018-11-19 17:40:18
Color range : Limited
Color primaries : BT.709
Transfer characteristics : BT.709
Matrix coefficients : BT.709
Video #2
ID : 8
Format : JPEG
Codec ID : jpeg
Duration : 1h 16mn
Bit rate mode : Variable
Bit rate : 354 bps
Width : 640 pixels
Height : 265 pixels
Display aspect ratio : 2.40:1
Frame rate mode : Variable
Frame rate : 0.002 fps
Minimum frame rate : 0.002 fps
Maximum frame rate : 0.006 fps
Color space : YUV
Chroma subsampling : 4:2:0
Bit depth : 8 bits
Compression mode : Lossy
Bits/(Pixel*Frame) : 1.044
Stream size : 195 KiB (0%)
Title : Chapter Images
Language : English
Encoded date : UTC 2018-11-19 17:40:22
Tagged date : UTC 2018-11-19 17:40:22
Audio #1
ID : 2
Format : AAC
Format/Info : Advanced Audio Codec
Format profile : LC
Codec ID : 40
Duration : 1h 16mn
Source duration : 1h 16mn
Bit rate mode : Variable
Bit rate : 157 Kbps
Maximum bit rate : 229 Kbps
Channel(s) : 2 channels
Channel positions : Front: L R
Sampling rate : 48.0 KHz
Compression mode : Lossy
Stream size : 85.9 MiB (3%)
Source stream size : 85.9 MiB (3%)
Title : Russian Stereo
Language : Russian
Encoded date : UTC 2018-11-19 17:40:05
Tagged date : UTC 2018-11-19 17:40:10
Audio #2
ID : 3
Format : AAC
Format/Info : Advanced Audio Codec
Format profile : LC
Codec ID : 40
Duration : 1h 16mn
Source duration : 1h 16mn
Bit rate mode : Variable
Bit rate : 157 Kbps
Maximum bit rate : 234 Kbps
Channel(s) : 2 channels
Channel positions : Front: L R
Sampling rate : 48.0 KHz
Compression mode : Lossy
Stream size : 85.8 MiB (3%)
Source stream size : 85.8 MiB (3%)
Title : English Stereo
Language : English
Encoded date : UTC 2018-11-19 17:40:05
Tagged date : UTC 2018-11-19 17:40:10
Audio #3
ID : 4
Format : AC-3
Format/Info : Audio Coding 3
Mode extension : CM (complete main)
Format settings, Endianness : Big
Codec ID : ac-3
Duration : 1h 16mn
Bit rate mode : Constant
Bit rate : 384 Kbps
Channel(s) : 6 channels
Channel positions : Front: L C R, Side: L R, LFE
Sampling rate : 48.0 KHz
Bit depth : 16 bits
Compression mode : Lossy
Stream size : 210 MiB (7%)
Title : Russian DD 5.1
Language : Russian
Encoded date : UTC 2018-11-19 17:40:05
Tagged date : UTC 2018-11-19 17:40:18
Audio #4
ID : 5
Format : AC-3
Format/Info : Audio Coding 3
Mode extension : CM (complete main)
Format settings, Endianness : Big
Codec ID : ac-3
Duration : 1h 16mn
Bit rate mode : Constant
Bit rate : 384 Kbps
Channel(s) : 6 channels
Channel positions : Front: L C R, Side: L R, LFE
Sampling rate : 48.0 KHz
Bit depth : 16 bits
Compression mode : Lossy
Stream size : 210 MiB (7%)
Title : English DD 5.1
Language : English
Encoded date : UTC 2018-11-19 17:40:05
Tagged date : UTC 2018-11-19 17:40:18
Text
ID : 6
Format : Timed Text
Muxing mode : sbtl
Codec ID : tx3g
Duration : 1h 13mn
Bit rate mode : Variable
Bit rate : 97 bps
Stream size : 52.5 KiB (0%)
Title : English full
Language : English
Encoded date : UTC 2018-11-19 17:40:05
Tagged date : UTC 2018-11-19 17:40:18
Menu #1
00:00:00.000 : 1
00:10:47.271 : 2
00:20:43.367 : 3
00:31:00.400 : 4
00:41:10.092 : 5
00:49:45.983 : 6
01:00:11.191 : 7
01:09:19.613 : 8
01:13:42.084 : 9
Menu #2
ID : 7
Codec ID : text
Duration : 1h 16mn
Language : English
Encoded date : UTC 2018-11-19 17:40:19
Tagged date : UTC 2018-11-19 17:40:19
Bit rate mode : CBR
00:00:00.000 : 1
00:10:47.271 : 2
00:20:43.367 : 3
00:31:00.400 : 4
00:41:10.092 : 5
00:49:45.983 : 6
01:00:11.191 : 7
01:09:19.613 : 8
01:13:42.084 : 9
-

подготовлен для просмотра на Apple TV, iPad, iPhone, iPod Touch.
Для просмотра данного релиза на компьютере с ОС Windows рекомендуется использовать VLC media player


[torrentc.info]_t_5647210.torrent
Торрент: Зарегистрирован ·  [ 2018-11-30 00:23 ] ·  ccf31f1a83b9e8d236f84c1994e3e3faa6e4ccdb

31 KB

Статус: проверено
Скачан: 0 раз
Размер: 3.06 GB
Оценка: 
(Голосов: 0)
Сказали спасибо: 0  Спасибо
Похожие темы
[Профиль]    [ЛС]
Показать сообщения:    
Ответить на тему

Текущее время: Сегодня 13:34

Часовой пояс: GMT + 7



Вы не можете начинать темы
Вы не можете отвечать на сообщения
Вы не можете редактировать свои сообщения
Вы не можете удалять свои сообщения
Вы не можете голосовать в опросах
Вы не можете прикреплять файлы к сообщениям
Вы можете скачивать файлы