Comedy Club (выпуск 487 от 02-11-2018) (Ксения Чашей, Дмитрий Ефимович, Роман Новиков, Гарик Мартиросян) [2018, Юмор, HDTV 1080i]

Ответить на тему
Статистика раздачи [Обновить пиров]
Размер:  1.28 GB   |    Зарегистрирован:  20 дней   |    Скачан:  0 раз

Полного источника не было: Никогда

 
   
 
 
 
Автор Сообщение

torrentc.info

Создавать темы 26-Ноя-2018 00:31

[Цитировать]

Comedy Club (выпуск 487 от 02-11-2018)
Дата/Год выхода: 2018
Страна: Россия
Жанр: Юмор
Продолжительность: 00:43:05
Перевод: Не требуется
Режиссер: Ксения Чашей, Дмитрий Ефимович, Роман Новиков, Гарик Мартиросян
Телеканал: ТНТ HD
Описание: Есть несколько вещей, которые происходят каждую осень — девушки устраивают фотосессии со всеми опавшими листьями в парке, Instagram заполняется грустными поэмами об ушедшем лете, а на телеканале ТНТ выходят новые выпуски Comedy Club!
качество: HDTV 1080i
формат: MKV
Видео: 1920x1080 (16:9), 25.000 fps, AVC ~4 500 kbps avg
Аудио: AC3, 192 kbps, 48 kHz, 2 ch

MediaInfo

GeneralUnique ID : 223482387113117205326044964802191161050 (0xA82124632F2125E68D8573DA0277F6DA)Complete name : D:\Humor\Comedy\Comedy Club 487 (02-11-2018).mkvFormat : MatroskaFormat version : Version 2File size : 1.28 GiBDuration : 43mn 5sOverall bit rate mode : VariableOverall bit rate : 4 263 KbpsEncoded date : UTC 2018-11-03 02:07:03Writing application : mkvmerge v6.1.0 ('Old Devil') built on Mar 4 2013 09:10:42Writing library : libebml v1.3.0 + libmatroska v1.4.0
VideoID : 1Format : AVCFormat/Info : Advanced Video CodecFormat profile : High@L4.0Format settings, CABAC : YesFormat settings, ReFrames : 4 framesCodec ID : V_MPEG4/ISO/AVCDuration : 43mn 5sBit rate mode : VariableBit rate : 3 986 KbpsMaximum bit rate : 4 500 KbpsWidth : 1 920 pixelsHeight : 1 080 pixelsDisplay aspect ratio : 16:9Frame rate mode : ConstantFrame rate : 25.000 fpsColor space : YUVChroma subsampling : 4:2:0Bit depth : 8 bitsScan type : ProgressiveBits/(Pixel*Frame) : 0.077Stream size : 1.20 GiB (94%)Default : YesForced : No
AudioID : 2Format : AC-3Format/Info : Audio Coding 3Mode extension : CM (complete main)Format settings, Endianness : BigCodec ID : A_AC3Duration : 43mn 5sBit rate mode : ConstantBit rate : 192 KbpsChannel count : 2 channelsChannel positions : Front: L RSampling rate : 48.0 KHzBit depth : 16 bitsCompression mode : LossyStream size : 59.2 MiB (5%)Default : YesForced : No

Скриншоты



[torrentc.info]_t_5638667.torrent
Торрент: Зарегистрирован ·  [ 2018-11-26 00:30 ] ·  1d2d2d4946cad017e831d8ea4976576177ec5657

13 KB

Статус: проверено
Скачан: 0 раз
Размер: 1.28 GB
Оценка: 
(Голосов: 0)
Сказали спасибо: 0  Спасибо
Похожие темы
[Профиль]    [ЛС]
Показать сообщения:    
Ответить на тему

Текущее время: Сегодня 13:31

Часовой пояс: GMT + 7



Вы не можете начинать темы
Вы не можете отвечать на сообщения
Вы не можете редактировать свои сообщения
Вы не можете удалять свои сообщения
Вы не можете голосовать в опросах
Вы не можете прикреплять файлы к сообщениям
Вы можете скачивать файлы