Король Матиуш Первый (Пётр Фоменко, Мария Муат, Анна Некрасова) [1976, СССР, фильм-спектакль, DVB, TS] Государственный Центральный детский театр

Ответить на тему
Статистика раздачи [Обновить пиров]
Размер:  1.16 GB   |    Зарегистрирован:  23 дня   |    Скачан:  0 раз

Полного источника не было: Никогда

 
   
 
 
 
Автор Сообщение

torrentc.info

Создавать темы 23-Ноя-2018 04:37

[Цитировать]

Король Матиуш Первый
Название театра: Государственный Центральный детский театр
Страна: СССР
Жанр: фильм-спектакль
Год выхода: 1976
Продолжительность: 01:35:19Режиссёр: Пётр Фоменко, Мария Муат, Анна Некрасова
В ролях: Нина Антонова (II), Александр Бордуков, Борис Чукаев, Евгений Перов, Николай Орлов (II), Матвей Нейман, Михаил Андросов, Иван Воронов, Олег Михайлов, Геннадий Молодцов, Людмила Гнилова, Альвиан Фомин, Владимир Калмыков, Вадим Александров, Александр Хотченков, Анатолий Щукин, Роберт Чумак, Юльен Балмусов
Описание: По мотивам сказки Януша Корчака. После внезапной смерти короля на троне оказывается его маленький сын - король Матиуш, однако истинными правителями остаются не самые лучшие и честные на свете министры. Юный король решает, что если он не в силах управлять взрослыми, то в состоянии как минимум сделать счастливыми детей.
Семпл: https://www.sendspace.com/file/cb3v3y
Качество видео: DVB
Формат файла: TS
Видео: MPEG4 Video (H264) 720x576 (20:11) 25fps 1 455kb/s
Аудио: русский MPEG Audio 48kHz 192kbps stereo

MediaInfo

General
ID : 1 (0x1)
Complete name : F:\Мои раздачи\Фильмы\Король Матиуш Первый (1976)\1 серия.ts
Format : MPEG-TS
File size : 571 MiB
Duration : 46 min 2 s
Overall bit rate mode : Variable
Overall bit rate : 1 734 kb/s
Video
ID : 225 (0xE1)
Menu ID : 1 (0x1)
Format : AVC
Format/Info : Advanced Video Codec
Format profile : High@L3
Format settings : CABAC / 4 Ref Frames
Format settings, CABAC : Yes
Format settings, ReFrames : 4 frames
Format settings, GOP : M=2, N=16
Codec ID : 27
Duration : 46 min 1 s
Bit rate : 1 455 kb/s
Width : 720 pixels
Height : 576 pixels
Display aspect ratio : 16:9
Frame rate : 25.000 FPS
Standard : Component
Color space : YUV
Chroma subsampling : 4:2:0
Bit depth : 8 bits
Scan type : Interlaced
Scan type, store method : Separated fields
Scan order : Top Field First
Bits/(Pixel*Frame) : 0.140
Stream size : 479 MiB (84%)
Color range : Limited
Color primaries : BT.601 PAL
Transfer characteristics : BT.470 System B/G
Matrix coefficients : BT.470 System B/G
Audio
ID : 325 (0x145)
Menu ID : 1 (0x1)
Format : MPEG Audio
Format version : Version 1
Format profile : Layer 2
Codec ID : 3
Duration : 46 min 1 s
Bit rate mode : Constant
Bit rate : 192 kb/s
Channel(s) : 2 channels
Sampling rate : 48.0 kHz
Frame rate : 41.667 FPS (1152 SPF)
Compression mode : Lossy
Stream size : 63.2 MiB (11%)
Language : Russian

Скриншот с названием постановки

Анаморфированные скриншоты



[torrentc.info]_t_5645882.torrent
Торрент: Зарегистрирован ·  [ 2018-11-23 04:34 ] ·  d4720f2d3ab9e9a5705d966b3127c5007a0c0910

12 KB

Статус: проверено
Скачан: 0 раз
Размер: 1.16 GB
Оценка: 
(Голосов: 0)
Сказали спасибо: 0  Спасибо
Похожие темы
[Профиль]    [ЛС]
Показать сообщения:    
Ответить на тему

Текущее время: Сегодня 13:04

Часовой пояс: GMT + 7



Вы не можете начинать темы
Вы не можете отвечать на сообщения
Вы не можете редактировать свои сообщения
Вы не можете удалять свои сообщения
Вы не можете голосовать в опросах
Вы не можете прикреплять файлы к сообщениям
Вы можете скачивать файлы