(Hard | Stoner Rock) [CD] Bukowski - Hazardous Creatures - 2013, FLAC (image+.cue), lossless

Ответить на тему
Статистика раздачи [Обновить пиров]
Размер:  370 MB   |    Зарегистрирован:  1 месяц 3 дня   |    Скачан:  0 раз

Полного источника не было: Никогда

 
   
 
 
 
Автор Сообщение

torrentc.info

Создавать темы 15-Ноя-2018 20:42

[Цитировать]


Bukowski

Hazardous Creatures




• Жанр: Hard | Stoner Rock
• Носитель: CD
• Год издания: 2013
• Издатель (лейбл) Nexus
• Номер по каталогу: KICP-1701
• Страна исполнителя (группы): France
• Аудиокодек: FLAC (*.flac)
• Тип рипа: image+.cue
• Продолжительность: 00:45:21
• Источник (Спасибо): workutagin ®
• Наличие сканов: да

01. Keep Your Head On (00:04:51)
02. Shoot First (00:03:46)
03. Hard Times (00:04:21)
04. Brothers Forever (00:04:08)
05. Hazardous Creatures (00:03:18)
06. Fever (00:03:54)
07. The Maze (00:03:24)
08. Troublemaker (00:04:47)
09. Payback (00:04:04)
10. By The River (00:04:20)
11. Hard Times(Bonus Track) (00:04:22)
-

• Содержание индексной карты

REM GENRE MetalREM DATE 2013REM DISCID 870AA10BREM COMMENT "ExactAudioCopy v1.3"PERFORMER "Bukowski"TITLE "Hazardous Creatures"REM COMPOSER ""FILE "Bukowski - Hazardous Creatures.flac" WAVE TRACK 01 AUDIO TITLE "Keep Your Head On" PERFORMER "Bukowski" REM COMPOSER "Bukowski" INDEX 01 00:00:00 TRACK 02 AUDIO TITLE "Shoot First" PERFORMER "Bukowski" REM COMPOSER "Bukowski" INDEX 01 04:51:25 TRACK 03 AUDIO TITLE "Hard Times" PERFORMER "Bukowski" REM COMPOSER "Bukowski" INDEX 01 08:38:03 TRACK 04 AUDIO TITLE "Brothers Forever" PERFORMER "Bukowski" REM COMPOSER "Bukowski" INDEX 01 12:59:47 TRACK 05 AUDIO TITLE "Hazardous Creatures" PERFORMER "Bukowski" REM COMPOSER "Bukowski" INDEX 01 17:07:73 TRACK 06 AUDIO TITLE "Fever" PERFORMER "Bukowski" REM COMPOSER "Bukowski" INDEX 01 20:26:61 TRACK 07 AUDIO TITLE "The Maze" PERFORMER "Bukowski" REM COMPOSER "Bukowski" INDEX 01 24:21:40 TRACK 08 AUDIO TITLE "Troublemaker" PERFORMER "Bukowski" REM COMPOSER "Bukowski" INDEX 01 27:46:07 TRACK 09 AUDIO TITLE "Payback" PERFORMER "Bukowski" REM COMPOSER "Bukowski" INDEX 01 32:33:16 TRACK 10 AUDIO TITLE "By The River" PERFORMER "Bukowski" REM COMPOSER "Bukowski" INDEX 01 36:38:13 TRACK 11 AUDIO TITLE "Hard Times(Bonus Track)" PERFORMER "Bukowski" REM COMPOSER "Bukowski" INDEX 01 40:58:69
-

• Лог создания рипа

Exact Audio Copy V1.3 from 2. September 2016
Отчёт EAC об извлечении, выполненном 9. ноября 2018, 16:53
Bukowski / Hazardous Creatures
Дисковод: HL-DT-STDVDRAM GU40N Adapter: 0 ID: 1
Режим чтения : ДостоверностьИспользование точного потока : ДаОтключение кэша аудио : ДаИспользование указателей C2 : Нет
Коррекция смещения при чтении : 103Способность читать области Lead-in и Lead-out : НетЗаполнение пропущенных сэмплов тишиной : ДаУдаление блоков с тишиной в начале и конце : НетПри вычислениях CRC использовались нулевые сэмплы : ДаИнтерфейс : Установленный внешний ASPI-интерфейс
Выходной формат : Пользовательский кодировщикВыбранный битрейт : 1024 kBit/sКачество : ВысокийДобавление ID3-тега : НетУтилита сжатия : C:\Program Files (x86)\Exact Audio Copy\Flac\flac.exeДополнительные параметры : -V -8 -T "Date=%year%" -T "Genre=%genre%" %source%
TOC извлечённого CD
Трек | Старт | Длительность | Начальный сектор | Конечный сектор --------------------------------------------------------------------- 1 | 0:00.00 | 4:51.25 | 0 | 21849 2 | 4:51.25 | 3:46.53 | 21850 | 38852 3 | 8:38.03 | 4:21.44 | 38853 | 58471 4 | 12:59.47 | 4:08.26 | 58472 | 77097 5 | 17:07.73 | 3:18.63 | 77098 | 92010 6 | 20:26.61 | 3:54.54 | 92011 | 109614 7 | 24:21.40 | 3:24.42 | 109615 | 124956 8 | 27:46.07 | 4:47.09 | 124957 | 146490 9 | 32:33.16 | 4:04.72 | 146491 | 164862 10 | 36:38.13 | 4:20.56 | 164863 | 184418 11 | 40:58.69 | 4:22.68 | 184419 | 204136
Характеристики диапазона извлечения и сообщения об ошибках
Выбранный диапазон
Имя файла C:\Users\workutagin\Desktop\BUKOWSKI - HAZARDOUS CREATURES 2014\Bukowski - Hazardous Creatures.wav
Пиковый уровень 99.1 % Скорость извлечения 1.9 X Качество диапазона 100.0 % CRC теста B5DEAA54 CRC копии B5DEAA54 Копирование... OK
Ошибок не произошло
AccurateRip: сводка
Трек 1 : извлечено точно (доверие 2) [5A332D67] (AR v2)Трек 2 : извлечено точно (доверие 2) [DC46D168] (AR v2)Трек 3 : извлечено точно (доверие 2) [F467480A] (AR v2)Трек 4 : извлечено точно (доверие 2) [0994CD16] (AR v2)Трек 5 : извлечено точно (доверие 2) [B54A41FC] (AR v2)Трек 6 : извлечено точно (доверие 2) [1647CEE3] (AR v2)Трек 7 : извлечено точно (доверие 2) [F1BB5C04] (AR v2)Трек 8 : извлечено точно (доверие 2) [9348B574] (AR v2)Трек 9 : извлечено точно (доверие 2) [BFBFB98E] (AR v2)Трек 10 : извлечено точно (доверие 2) [2BA66D42] (AR v2)Трек 11 : извлечено точно (доверие 2) [644BB03A] (AR v2)
Все треки извлечены точно
Конец отчёта
---- CUETools DB Plugin V2.1.6
[CTDB TOCID: 2irTfXEhTCK2pnENaaNW6v3dsmM-] foundSubmit result: 2irTfXEhTCK2pnENaaNW6v3dsmM- has been confirmedTrack | CTDB Status 1 | (2/2) Accurately ripped 2 | (2/2) Accurately ripped 3 | (2/2) Accurately ripped 4 | (2/2) Accurately ripped 5 | (2/2) Accurately ripped 6 | (2/2) Accurately ripped 7 | (2/2) Accurately ripped 8 | (2/2) Accurately ripped 9 | (2/2) Accurately ripped 10 | (2/2) Accurately ripped 11 | (2/2) Accurately ripped
==== Контрольная сумма отчёта 6449AF2B2A61788E8E76AB1EB5DD9866CEC3E9465D8F893BA49F44A084AF8D46 ====
-


[torrentc.info]_t_5641992.torrent
Торрент: Зарегистрирован ·  [ 2018-11-15 20:40 ] ·  7612648786b3a94741468171e61ba67e7520ebe7

16 KB

Статус: проверено
Скачан: 0 раз
Размер: 370 MB
Оценка: 
(Голосов: 0)
Сказали спасибо: 0  Спасибо
Похожие темы
[Профиль]    [ЛС]
Показать сообщения:    
Ответить на тему

Текущее время: Сегодня 06:26

Часовой пояс: GMT + 7



Вы не можете начинать темы
Вы не можете отвечать на сообщения
Вы не можете редактировать свои сообщения
Вы не можете удалять свои сообщения
Вы не можете голосовать в опросах
Вы не можете прикреплять файлы к сообщениям
Вы можете скачивать файлы