[TR24][OF] Эмгэ - Мина - 2018 (Electro-clash, Kraftwave)

Ответить на тему
Статистика раздачи [Обновить пиров]
Размер:  1.05 GB   |    Зарегистрирован:  28 дней   |    Скачан:  0 раз

Полного источника не было: Никогда

 
   
 
 
 
Автор Сообщение

torrentc.info

Создавать темы 14-Ноя-2018 22:05

[Цитировать]

Эмгэ / Мина
Формат файла записи/Источник записи: [TR24][OF]
Наличие водяных знаков: Нет
Год издания/переиздания диска: 2018
Жанр: Electro-clash, Kraftwave
Издатель (лейбл): STUB records
Продолжительность: 48:27
Источник: https://stubrecords.bandcamp.com/album/--8
Наличие сканов в содержимом раздачи: обложка
-
Треклист:
1. Наркоз 03:45
2. Не Нужно 03:47
3. Конденсат 03:38
4. Синоптик 03:12
5. Организация 03:47
6. Фильтр 03:19
7. Джусто 03:33
8. Демон 03:03
9. Осадок 03:34
10. Правда 03:09
11. Мина 03:23
12. Цензура 03:09
13. Последний 03:26
14. Живой 03:42
-
Формат файла: FLAC (*.flac)
Тип рипа: tracks
Разрядность: 24/96
Формат файла: PCM
Количество каналов: 2.0
-

Лог проверки качества

----------------------------------------------------------------------------------------------EMGE - Mina - (2018) [24-96]----------------------------------------------------------------------------------------------DR Peak RMS Filename----------------------------------------------------------------------------------------------
DR7 -0.28 dB -7.86 dB 01 - Narkoz - EMGE - Mina - (2018) .flacDR6 -0.28 dB -7.55 dB 02 - NeNujno - EMGE - Mina - (2018) .flacDR7 -0.28 dB -7.74 dB 03 - Kondensat - EMGE - Mina - (2018) .flacDR8 -0.28 dB -8.97 dB 04 - Sinoptik - EMGE - Mina - (2018) .flacDR7 -0.28 dB -8.40 dB 05 - Organizaciya - EMGE - Mina - (2018) .flacDR6 -0.28 dB -7.69 dB 06 - Filtr - EMGE - Mina - (2018) .flacDR7 -0.28 dB -7.91 dB 07 - Justo - EMGE - Mina - (2018) .flacDR6 -0.28 dB -7.52 dB 08 - Demon - EMGE - Mina - (2018) .flacDR6 -0.28 dB -7.73 dB 09 - Osadok - EMGE - Mina - (2018) .flacDR6 -0.28 dB -7.33 dB 10 - Pravda - EMGE - Mina - (2018) .flacDR6 -0.28 dB -6.93 dB 11 - Mina - EMGE - Mina - (2018) .flacDR6 -0.28 dB -7.39 dB 12 - Cenzura - EMGE - Mina - (2018) .flacDR7 -0.28 dB -7.67 dB 13 - Posledniy - EMGE - Mina - (2018) .flacDR6 -0.28 dB -7.29 dB 14 - Jivoy - EMGE - Mina - (2018) .flac----------------------------------------------------------------------------------------------
Number of Files: 14 Official DR Value: DR7
==============================================================================================
-


[torrentc.info]_t_5641819.torrent
Торрент: Зарегистрирован ·  [ 2018-11-14 22:01 ] ·  260346da40de7c1f04b9e20588afe6eb6e613aad

12 KB

Статус: проверено
Скачан: 0 раз
Размер: 1.05 GB
Оценка: 
(Голосов: 0)
Сказали спасибо: 0  Спасибо
Похожие темы
[Профиль]    [ЛС]
Показать сообщения:    
Ответить на тему

Текущее время: Сегодня 02:57

Часовой пояс: GMT + 7



Вы не можете начинать темы
Вы не можете отвечать на сообщения
Вы не можете редактировать свои сообщения
Вы не можете удалять свои сообщения
Вы не можете голосовать в опросах
Вы не можете прикреплять файлы к сообщениям
Вы можете скачивать файлы