[TR24][OF] Endless Melancholy (incl. splits w/ Desolate Horizons, Lights Dim) - Дискография (18 релизов) - 2012-2018 (Modern Classical / Ambient / Drone)

Ответить на тему
Статистика раздачи [Обновить пиров]
Размер:  4.01 GB   |    Зарегистрирован:  1 месяц 4 дня   |    Скачан:  0 раз

Полного источника не было: Никогда

 
   
 
 
 
Автор Сообщение

torrentc.info

Создавать темы 14-Ноя-2018 22:05

[Цитировать]

Endless Melancholy Формат файла записи/Источник записи: [TR24][OF]
Наличие водяных знаков: Нет
Годы издания: 2012-2018
Жанр: Modern Classical / Ambient / Drone
Общая продолжительность: 07:21:32
Наличие сканов в содержимом раздачи: Нет

2012 - A Timeless Journey To The Setting Sun [24-bit FLAC] (7:38)

Издатель(лейбл): Endless Melancholy
Источник (релизер): bandcamp
Треклист:
01. A Timeless Journey To The Setting Sun [7:38]
Формат файла: FLAC (*.flac)
Тип рипа: tracks
Разрядность: 24/44,1
Формат файла: WAV (flac.ape.wv)
Количество каналов: 2.0

Динамический диапазон

foobar2000 1.3.9 / Dynamic Range Meter 1.1.1log date: 2016-03-30 00:37:29
--------------------------------------------------------------------------------Statistics for: 01-A Timeless Journey To The Setting SunNumber of samples: 20213760Duration: 7:38--------------------------------------------------------------------------------
Left Right
Peak Value: 0.00 dB --- 0.00 dBAvg RMS: -7.49 dB --- -8.34 dBDR channel: 5.33 dB --- 6.00 dB--------------------------------------------------------------------------------
Official DR Value: DR6
Samplerate: 44100 HzChannels: 2Bits per sample: 24Bitrate: 1431 kbpsCodec: FLAC================================================================================

Спектрограммы

2012 - Before, After [24-bit FLAC] (20:58)

Издатель(лейбл): Endless Melancholy
Источник (релизер): bandcamp
Треклист:
01. A Minute For The Beginning [01:00]
02. All Farewells Aren't Sudden [05:30]
03. A Minute In Between [01:00]
04. You Are The Moonlight [06:12]
05. A Minute For The End [01:00]
06. Carpe Diem [06:13]
Формат файла: FLAC (*.flac)
Тип рипа: tracks
Разрядность: 24/44.1
Формат файла: WAV (flac.ape.wv)
Количество каналов: 2.0

Динамический диапазон

foobar2000 1.3.9 / Dynamic Range Meter 1.1.1log date: 2016-03-30 00:37:42
--------------------------------------------------------------------------------Analyzed: Endless Melancholy / Before, After--------------------------------------------------------------------------------
DR Peak RMS Duration Track--------------------------------------------------------------------------------DR6 -0.01 dB -10.06 dB 1:01 01-A Minute For The BeginningDR7 -0.01 dB -11.49 dB 5:31 02-All Farewells Aren't SuddenDR9 -3.44 dB -14.73 dB 1:01 03-A Minute In BetweenDR5 0.00 dB -7.00 dB 6:13 04-You Are The MoonlightDR12 -0.08 dB -15.94 dB 1:01 05-A Minute For The EndDR8 -0.32 dB -11.31 dB 6:12 06-Carpe Diem--------------------------------------------------------------------------------
Number of tracks: 6Official DR value: DR8
Samplerate: 44100 HzChannels: 2Bits per sample: 24Bitrate: 1374 kbpsCodec: FLAC================================================================================

Спектрограммы

2012 - You Are The Moonlight [24-bit FLAC] (4:18)

Издатель(лейбл): Endless Melancholy
Источник (релизер): what.cd -> bandcamp
Треклист:
01. You Are The Moonlight [4:18]
Формат файла: FLAC (*.flac)
Тип рипа: tracks
Разрядность: 24/44,1
Формат файла: WAV (flac.ape.wv)
Количество каналов: 2.0

Динамический диапазон

foobar2000 1.3.9 / Dynamic Range Meter 1.1.1log date: 2016-04-03 16:26:10
--------------------------------------------------------------------------------Statistics for: 01-You Are The MoonlightNumber of samples: 11378145Duration: 4:18--------------------------------------------------------------------------------
Left Right
Peak Value: -0.30 dB --- -0.31 dBAvg RMS: -8.34 dB --- -9.67 dBDR channel: 5.33 dB --- 6.05 dB--------------------------------------------------------------------------------
Official DR Value: DR6
Samplerate: 44100 HzChannels: 2Bits per sample: 24Bitrate: 1193 kbpsCodec: FLAC================================================================================

Спектрограммы

2013 - Autumn Outtakes [24-bit FLAC] (20:20)

Издатель(лейбл): Endless Melancholy
Источник (релизер): bandcamp
Треклист:
01. Old Photographs [06:40]
02. Found Letters [03:17]
03. You Don't See Darkness When You Close Your Eyes [01:53]
04. Celestial Pathways [08:30]
Формат файла: FLAC (*.flac)
Тип рипа: tracks
Разрядность: 24/44.1
Формат файла: WAV (flac.ape.wv)
Количество каналов: 2.0

Динамический диапазон

foobar2000 1.3.9 / Dynamic Range Meter 1.1.1log date: 2016-03-30 00:38:06
--------------------------------------------------------------------------------Analyzed: Endless Melancholy / Autumn Outtakes--------------------------------------------------------------------------------
DR Peak RMS Duration Track--------------------------------------------------------------------------------DR9 -0.14 dB -13.41 dB 6:40 01-Old PhotographsDR8 -0.40 dB -9.73 dB 3:17 02-Found LettersDR5 -0.40 dB -8.24 dB 1:53 03-You Don't See Darkness When You Close Your EyesDR6 0.00 dB -8.85 dB 8:30 04-Celestial Pathways--------------------------------------------------------------------------------
Number of tracks: 4Official DR value: DR7
Samplerate: 44100 HzChannels: 2Bits per sample: 24Bitrate: 1393 kbpsCodec: FLAC================================================================================

Спектрограммы

2013 - Five Songs [24-bit FLAC] (17:59)

Издатель(лейбл): Endless Melancholy
Источник (релизер): bandcamp
Треклист:
01. We Have Met Before [03:15]
02. A Place Called Home [04:00]
03. Leave [02:52]
04. Nowhere, Never [02:45]
05. Nostalgia [05:06]
Формат файла: FLAC (*.flac)
Тип рипа: tracks
Разрядность: 24/44.1
Формат файла: WAV (flac.ape.wv)
Количество каналов: 2.0

Динамический диапазон

foobar2000 1.3.9 / Dynamic Range Meter 1.1.1log date: 2016-03-30 00:38:38
--------------------------------------------------------------------------------Analyzed: Endless Melancholy / Five Songs--------------------------------------------------------------------------------
DR Peak RMS Duration Track--------------------------------------------------------------------------------DR10 -0.88 dB -13.28 dB 3:15 01-We Have Met BeforeDR10 -0.05 dB -13.33 dB 4:00 02-A Place Called HomeDR11 -0.40 dB -13.95 dB 2:52 03-LeaveDR11 -1.30 dB -16.95 dB 2:45 04-Nowhere, NeverDR11 -1.35 dB -16.80 dB 5:07 05-Nostalgia--------------------------------------------------------------------------------
Number of tracks: 5Official DR value: DR10
Samplerate: 48000 HzChannels: 2Bits per sample: 24Bitrate: 1391 kbpsCodec: FLAC================================================================================

Спектрограммы

2013 - November [16-24-bit FLAC] (7:37)

Издатель(лейбл): Endless Melancholy
Продолжительность: 00:07:38
Источник (релизер): bandcamp
Треклист:
01. November [3:33] [16-bit]
02. November (video edit) [4:05]
Формат файла: FLAC (*.flac)
Тип рипа: tracks
Разрядность: 24/44.1; 16/44.1
Формат файла: WAV (flac.ape.wv)
Количество каналов: 2.0

Динамический диапазон

foobar2000 1.3.9 / Dynamic Range Meter 1.1.1log date: 2016-03-30 00:38:42
--------------------------------------------------------------------------------Statistics for: 02-November (video edit)Number of samples: 10798927Duration: 4:05--------------------------------------------------------------------------------
Left Right
Peak Value: -1.00 dB --- -1.00 dBAvg RMS: -14.77 dB --- -15.36 dBDR channel: 8.55 dB --- 8.95 dB--------------------------------------------------------------------------------
Official DR Value: DR9
Samplerate: 44100 HzChannels: 2Bits per sample: 24Bitrate: 1349 kbpsCodec: FLAC================================================================================
foobar2000 1.3.9 / Dynamic Range Meter 1.1.1log date: 2016-03-30 00:38:40
--------------------------------------------------------------------------------Statistics for: 01-NovemberNumber of samples: 9369877Duration: 3:32--------------------------------------------------------------------------------
Left Right
Peak Value: -0.30 dB --- -0.30 dBAvg RMS: -15.06 dB --- -14.73 dBDR channel: 9.09 dB --- 8.75 dB--------------------------------------------------------------------------------
Official DR Value: DR9
Samplerate: 44100 HzChannels: 2Bits per sample: 16Bitrate: 505 kbpsCodec: FLAC================================================================================

Спектрограммы

2013 - Soft Steps EP (w. Lights Dim) [24-bit FLAC] (22:14)

Издатель(лейбл): Endless Melancholy
Источник (релизер): bandcamp
Треклист:
01. Bed of Moss [05:06]
02. Piano no Mori [05:53]
03. As They Grow [05:01]
04. Soft Steps [03:08]
05. A piece for N [03:05]
Формат файла: FLAC (*.flac)
Тип рипа: tracks
Разрядность: 24/44.1
Формат файла: WAV (flac.ape.wv)
Количество каналов: 2.0

Динамический диапазон

foobar2000 1.3.9 / Dynamic Range Meter 1.1.1log date: 2016-03-30 00:41:02
--------------------------------------------------------------------------------Analyzed: Lights Dim & Endless Melancholy / Soft Steps EP--------------------------------------------------------------------------------
DR Peak RMS Duration Track--------------------------------------------------------------------------------DR12 -1.30 dB -16.97 dB 5:07 01-Bed of MossDR12 -2.30 dB -18.20 dB 5:53 02-Piano no MoriDR8 -1.30 dB -14.99 dB 5:02 03-As They GrowDR11 -1.30 dB -16.87 dB 3:08 04-Soft StepsDR8 -4.22 dB -14.26 dB 3:04 05-A piece for N--------------------------------------------------------------------------------
Number of tracks: 5Official DR value: DR10
Samplerate: 44100 HzChannels: 2Bits per sample: 24Bitrate: 1539 kbpsCodec: FLAC================================================================================

Спектрограммы

2014 - Fragile [24-bit FLAC] (46:12)

Издатель(лейбл): Endless Melancholy
Источник (релизер): bandcamp
Треклист:
01. Wherever [02:08]
02. Glory Of The Sun [06:16]
03. Little Hands [05:03]
04. Forgotten Valentines [03:50]
05. Lost [05:10]
06. Rêverie [07:03]
07. Do You Remember? [03:16]
08. Write Me A Letter [03:46]
09. You Are The Moonlight [07:32]
10. Somewhere [02:03]
Формат файла: FLAC (*.flac)
Тип рипа: tracks
Разрядность: 24/44.1
Формат файла: WAV (flac.ape.wv)
Количество каналов: 2.0

Динамический диапазон

foobar2000 1.3.9 / Dynamic Range Meter 1.1.1log date: 2016-03-30 00:39:11
--------------------------------------------------------------------------------Analyzed: Endless Melancholy / Fragile--------------------------------------------------------------------------------
DR Peak RMS Duration Track--------------------------------------------------------------------------------DR9 -0.20 dB -14.38 dB 2:08 01-WhereverDR8 -0.20 dB -12.20 dB 6:17 02-Glory Of The SunDR7 -0.20 dB -8.47 dB 5:04 03-Little HandsDR9 -0.20 dB -13.30 dB 3:51 04-Forgotten ValentinesDR8 -0.20 dB -11.59 dB 5:11 05-LostDR8 -0.20 dB -11.77 dB 7:04 06-RêverieDR8 -0.20 dB -11.02 dB 3:16 07-Do You Remember?DR11 -0.20 dB -13.84 dB 3:46 08-Write Me A LetterDR8 -0.20 dB -12.39 dB 7:33 09-You Are The MoonlightDR13 -0.20 dB -18.06 dB 2:04 10-Somewhere--------------------------------------------------------------------------------
Number of tracks: 10Official DR value: DR9
Samplerate: 44100 HzChannels: 2Bits per sample: 24Bitrate: 1237 kbpsCodec: FLAC================================================================================

Спектрограммы

2014 - Rêverie - Broken [16-24-bit FLAC] (11:26)

Издатель(лейбл): Endless Melancholy
Источник (релизер): bandcamp
Треклист:
01. Reverie [7:00]
02. Broken [4:25] [16-bit]
Формат файла: FLAC (*.flac)
Тип рипа: tracks
Разрядность: 24/44.1; 16/44.1
Формат файла: WAV (flac.ape.wv)
Количество каналов: 2.0

Динамический диапазон

foobar2000 1.3.9 / Dynamic Range Meter 1.1.1log date: 2016-03-30 00:39:17
--------------------------------------------------------------------------------Statistics for: 02-BrokenNumber of samples: 11720011Duration: 4:26--------------------------------------------------------------------------------
Left Right
Peak Value: -2.31 dB --- -2.35 dBAvg RMS: -10.90 dB --- -11.66 dBDR channel: 4.25 dB --- 5.28 dB--------------------------------------------------------------------------------
Official DR Value: DR5
Samplerate: 44100 HzChannels: 2Bits per sample: 16Bitrate: 703 kbpsCodec: FLAC================================================================================
foobar2000 1.3.9 / Dynamic Range Meter 1.1.1log date: 2016-03-30 00:39:15
--------------------------------------------------------------------------------Statistics for: 01-RêverieNumber of samples: 18548465Duration: 7:01--------------------------------------------------------------------------------
Left Right
Peak Value: -0.19 dB --- -0.14 dBAvg RMS: -9.01 dB --- -9.14 dBDR channel: 6.56 dB --- 6.46 dB--------------------------------------------------------------------------------
Official DR Value: DR7
Samplerate: 44100 HzChannels: 2Bits per sample: 24Bitrate: 1364 kbpsCodec: FLAC================================================================================

Спектрограммы

2014 - Wherever [24-bit FLAC] (4:12)

Издатель(лейбл): Endless Melancholy
Источник (релизер): bandcamp
Треклист:
01. Wherever [02:08]
02. Somewhere [02:03]
Формат файла: FLAC (*.flac)
Тип рипа: tracks
Разрядность: 24/44.1
Формат файла: WAV (flac.ape.wv)
Количество каналов: 2.0

Динамический диапазон

foobar2000 1.3.9 / Dynamic Range Meter 1.1.1log date: 2016-03-30 00:39:20
--------------------------------------------------------------------------------Analyzed: Endless Melancholy / Wherever--------------------------------------------------------------------------------
DR Peak RMS Duration Track--------------------------------------------------------------------------------DR9 -0.20 dB -14.38 dB 2:08 01-WhereverDR13 -0.20 dB -18.06 dB 2:04 02-Somewhere--------------------------------------------------------------------------------
Number of tracks: 2Official DR value: DR11
Samplerate: 44100 HzChannels: 2Bits per sample: 24Bitrate: 1237 kbpsCodec: FLAC================================================================================

Спектрограммы

2015 - Ambermixes [16-24-bit FLAC] (1:08:19)

Издатель(лейбл): Endless Melancholy
Источник (релизер): bandcamp
Треклист:
01. Amber [06:38]
02. To These Amber Skies [08:09]
03. The Lost Amber (Musicformessier Remix) [04:03]
04. Amber Maze (Creation VI Remix) [07:26]
05. Journey to the Cold Amber (Ralax Remix) [04:40] [16-bit]
06. As They Hardened In the Sun, They Turned Into Amber (Desolate Horizons Remix) [10:31]
07. Kept in Amber (Dayin Remix) [05:08]
08. Amber Fields (A Model Kit Remix) [05:06]
09. The Reflection of Amber Within the Black Sea (SiJ Remix) [06:46]
10. Summer in Amber (Scorba Remix) [04:57]
11. Amber (Recomposed by Marco Caricola) [04:50]
Формат файла: FLAC (*.flac)
Тип рипа: tracks
Разрядность: 24/44.1; 24/48; 16/44.1
Формат файла: WAV (flac.ape.wv)
Количество каналов: 2.0

Динамический диапазон

foobar2000 1.3.9 / Dynamic Range Meter 1.1.1log date: 2016-03-30 00:39:31
--------------------------------------------------------------------------------Analyzed: Endless Melancholy / Ambermixes--------------------------------------------------------------------------------
DR Peak RMS Duration Track--------------------------------------------------------------------------------DR10 -1.00 dB -14.28 dB 6:39 01-AmberDR10 -1.00 dB -13.43 dB 4:04 03-The Lost Amber (Musicformessier Remix)DR11 -0.50 dB -14.57 dB 7:27 04-Amber Maze (Creation VI Remix)--------------------------------------------------------------------------------
Number of tracks: 3Official DR value: DR10
Samplerate: 44100 HzChannels: 2Bits per sample: 24Bitrate: 1335 kbpsCodec: FLAC================================================================================
--------------------------------------------------------------------------------Statistics for: 05-Journey to the Cold Amber (Ralax Remix)Number of samples: 12348000Duration: 4:40--------------------------------------------------------------------------------
Left Right
Peak Value: -0.32 dB --- -0.32 dBAvg RMS: -11.94 dB --- -11.71 dBDR channel: 8.56 dB --- 7.93 dB--------------------------------------------------------------------------------
Official DR Value: DR8
Samplerate: 44100 HzChannels: 2Bits per sample: 16Bitrate: 636 kbpsCodec: FLAC================================================================================--------------------------------------------------------------------------------Analyzed: Endless Melancholy / Ambermixes--------------------------------------------------------------------------------
DR Peak RMS Duration Track--------------------------------------------------------------------------------DR11 0.00 dB -13.97 dB 10:31 06-As They Hardened In the Sun, They Turned Into Amber (Desolate Horizons Remix)DR9 -1.00 dB -12.73 dB 6:47 09-The Reflection of Amber Within the Black Sea (SiJ Remix)DR8 -0.22 dB -11.49 dB 4:58 10-Summer in Amber (Scorba Remix)--------------------------------------------------------------------------------
Number of tracks: 3Official DR value: DR9
Samplerate: 44100 HzChannels: 2Bits per sample: 24Bitrate: 1463 kbpsCodec: FLAC================================================================================
--------------------------------------------------------------------------------Analyzed: Endless Melancholy / Ambermixes--------------------------------------------------------------------------------
DR Peak RMS Duration Track--------------------------------------------------------------------------------DR10 -1.00 dB -13.39 dB 8:10 02-To These Amber SkiesDR10 -0.30 dB -14.52 dB 5:08 07-Kept in Amber (Dayin Remix)DR8 -1.00 dB -13.15 dB 5:06 08-Amber Fields (A Model Kit Remix)DR8 -0.10 dB -11.49 dB 4:50 11-Amber (Recomposed by Marco Caricola)--------------------------------------------------------------------------------
Number of tracks: 4Official DR value: DR9
Samplerate: 48000 HzChannels: 2Bits per sample: 24Bitrate: 1494 kbpsCodec: FLAC================================================================================

Спектрограммы

2015 - Deep As The Dark Blue Sea (w. Desolate Horizons) [16-24-bit FLAC] (52:35)

Издатель(лейбл): Endless Melancholy
Источник (релизер): bandcamp
Треклист:
01. Endless Melancholy - Still [03:59] [16-bit]
02. Endless Melancholy - A Giant Wave [07:16] [16-bit]
03. Endless Melancholy - The Air Here Is Written With You [06:28] [16-bit]
04. Endless Melancholy - Reflections [02:01] [16-bit]
05. Endless Melancholy - Like An Old Memory We Are Washed Ashore [05:54] [16-bit]
06. Desolate Horizons - From Whence We Came [04:21]
07. Desolate Horizons - The World Slips Away as We Dance in the Fire [05:41]
08. Desolate Horizons - Like Whispers Lost at Sea, We Soar [07:31]
09. Desolate Horizons - Your Echoes Drift Through Me Like Waves Caressing the Shores [06:01]
10. Desolate Horizons - We're Coming Home Now [03:30]
Формат файла: FLAC (*.flac)
Тип рипа: tracks
Разрядность: 24/44.1; 16/44.1
Формат файла: WAV (flac.ape.wv)
Количество каналов: 2.0

Динамический диапазон

foobar2000 1.3.9 / Dynamic Range Meter 1.1.1log date: 2016-03-30 00:36:59
--------------------------------------------------------------------------------Analyzed: Desolate Horizons / Deep As The Dark Blue Sea--------------------------------------------------------------------------------
DR Peak RMS Duration Track--------------------------------------------------------------------------------DR10 -1.00 dB -15.54 dB 4:21 06-From Whence We CameDR10 -1.00 dB -15.15 dB 5:40 07-The World Slips Away as We Dance in the FireDR9 -1.00 dB -11.19 dB 7:30 08-Like Whispers Lost at Sea, We SoarDR9 -1.00 dB -13.05 dB 6:00 09-Your Echoes Drift Through Me Like Waves Caressing the ShoresDR10 -1.00 dB -15.19 dB 3:30 10-We're Coming Home Now--------------------------------------------------------------------------------
Number of tracks: 5Official DR value: DR9
Samplerate: 44100 HzChannels: 2Bits per sample: 24Bitrate: 1357 kbpsCodec: FLAC================================================================================
--------------------------------------------------------------------------------Analyzed: Endless Melancholy / Deep As The Dark Blue Sea--------------------------------------------------------------------------------
DR Peak RMS Duration Track--------------------------------------------------------------------------------DR8 -1.00 dB -12.03 dB 3:58 01-StillDR9 -0.10 dB -11.36 dB 7:15 02-A Giant WaveDR9 -0.40 dB -11.02 dB 6:27 03-The Air Here Is Written With YouDR9 0.00 dB -10.80 dB 2:00 04-ReflectionsDR9 -0.10 dB -11.13 dB 5:54 05-Like An Old Memory We Are Washed Ashore--------------------------------------------------------------------------------
Number of tracks: 5Official DR value: DR9
Samplerate: 44100 HzChannels: 2Bits per sample: 16Bitrate: 832 kbpsCodec: FLAC================================================================================

Спектрограммы

2015 - Wide As The Golden Ocean (w. Desolate Horizons) [24-bit FLAC] (20:20)

Издатель(лейбл): Endless Melancholy
Источник (релизер): bandcamp
Треклист:
01. Desolate Horizons - Deep, Quiet and Alone [10:00]
02. Endless Melancholy - Like Ships Without Anchors [10:20]
Формат файла: FLAC (*.flac)
Тип рипа: tracks
Разрядность: 24/44.1
Формат файла: WAV (flac.ape.wv)
Количество каналов: 2.0

Динамический диапазон

foobar2000 1.3.9 / Dynamic Range Meter 1.1.1log date: 2016-03-30 00:37:24
--------------------------------------------------------------------------------Analyzed: Desolate Horizons / Wide As The Golden Ocean (1) Endless Melancholy / Wide As The Golden Ocean (2)--------------------------------------------------------------------------------
DR Peak RMS Duration Track--------------------------------------------------------------------------------DR9 -1.00 dB -13.09 dB 10:00 01-Deep, Quiet and AloneDR11 -0.95 dB -16.24 dB 10:20 02-Like Ships Without Anchors--------------------------------------------------------------------------------
Number of tracks: 2Official DR value: DR10
Samplerate: 44100 HzChannels: 2Bits per sample: 24Bitrate: 1313 kbpsCodec: FLAC================================================================================

Спектрограммы

2016 - Oceanmixes [16-24-bit FLAC] (45:58)

Издатель(лейбл): Endless Melancholy
Источник (релизер): bandcamp
Треклист:
01. Like Ships Without Anchors [8:08] [16-bit]
02. As The Ocean Dragged Them In (Siavash Amini Remix) [7:08]
03. Standing Still Before The Ocean (Audio Obscura Remix) [4:49] [16-bit]
04. Broken Ocean Mirror (Equal Stones Remix) [5:48]
05. Unto The Boundless Ocean Of Thy Beauty (Desolate Horizons Remix) [8:10]
06. The Seventh Ocean (Musicformessier Remix) [4:07] [16-bit]
07. Dirty Ocean (Gamardah Fungus Remix) [7:48] [16-bit]
Формат файла: FLAC (*.flac)
Тип рипа: tracks
Разрядность: 24/44.1; 16/44.1
Формат файла: WAV (flac.ape.wv)
Количество каналов: 2.0

Динамический диапазон

foobar2000 1.3.9 / Dynamic Range Meter 1.1.1log date: 2016-07-09 18:18:02
--------------------------------------------------------------------------------Statistics for: 02-As The Ocean Dragged Them In (Siavash Amini Remix)Number of samples: 18874800Duration: 7:08--------------------------------------------------------------------------------
Left Right
Peak Value: -0.40 dB --- -0.40 dBAvg RMS: -11.65 dB --- -11.30 dBDR channel: 8.02 dB --- 7.22 dB--------------------------------------------------------------------------------
Official DR Value: DR8
Samplerate: 44100 HzChannels: 2Bits per sample: 24Bitrate: 1177 kbpsCodec: FLAC================================================================================--------------------------------------------------------------------------------Statistics for: 03-Standing Still Before The Ocean (Audio Obscura Remix)Number of samples: 12764615Duration: 4:49--------------------------------------------------------------------------------
Left Right
Peak Value: -0.30 dB --- -0.30 dBAvg RMS: -15.70 dB --- -15.79 dBDR channel: 12.68 dB --- 12.98 dB--------------------------------------------------------------------------------
Official DR Value: DR13
Samplerate: 44100 HzChannels: 2Bits per sample: 16Bitrate: 734 kbpsCodec: FLAC================================================================================--------------------------------------------------------------------------------Analyzed: Endless Melancholy / Oceanmixes--------------------------------------------------------------------------------
DR Peak RMS Duration Track--------------------------------------------------------------------------------DR7 -0.40 dB -9.42 dB 5:48 04-Broken Ocean Mirror (Equal Stones Remix)DR7 -0.10 dB -9.45 dB 8:10 05-Unto The Boundless Ocean Of Thy Beauty (Desolate Horizons Remix)--------------------------------------------------------------------------------
Number of tracks: 2Official DR value: DR7
Samplerate: 44100 HzChannels: 2Bits per sample: 24Bitrate: 1595 kbpsCodec: FLAC================================================================================
--------------------------------------------------------------------------------Analyzed: Endless Melancholy / Oceanmixes--------------------------------------------------------------------------------
DR Peak RMS Duration Track--------------------------------------------------------------------------------DR9 -0.40 dB -11.58 dB 4:07 06-The Seventh Ocean (Musicformessier Remix)DR8 -0.20 dB -10.35 dB 7:48 07-Dirty Ocean (Gamardah Fungus Remix)--------------------------------------------------------------------------------
Number of tracks: 2Official DR value: DR8
Samplerate: 44100 HzChannels: 2Bits per sample: 16Bitrate: 999 kbpsCodec: FLAC================================================================================
foobar2000 1.3.9 / Dynamic Range Meter 1.1.1log date: 2016-07-09 18:17:58
--------------------------------------------------------------------------------Statistics for: 01-Like Ships Without AnchorsNumber of samples: 21503142Duration: 8:08--------------------------------------------------------------------------------
Left Right
Peak Value: -1.00 dB --- -1.00 dBAvg RMS: -12.67 dB --- -12.34 dBDR channel: 8.55 dB --- 8.32 dB--------------------------------------------------------------------------------
Official DR Value: DR8
Samplerate: 44100 HzChannels: 2Bits per sample: 16Bitrate: 577 kbpsCodec: FLAC================================================================================

Спектрограммы

2017 - One Day You Will Be Free [24-bit FLAC] (4:50)

Издатель(лейбл): Endless Melancholy
Источник (релизер): bandcamp
Треклист:
01. One Day You Will Be Free (feat. BILYK) [4:50]
Формат файла: FLAC (*.flac)
Тип рипа: tracks
Разрядность: 24/48
Формат файла: WAV (flac.ape.wv)
Количество каналов: 2.0

Динамический диапазон

foobar2000 1.3.19 / Dynamic Range Meter 1.1.1log date: 2018-11-09 18:15:16
--------------------------------------------------------------------------------Statistics for: 01-One Day You Will Be Free (feat. BILYK)Number of samples: 13924175Duration: 4:50--------------------------------------------------------------------------------
Left Right
Peak Value: 0.00 dB --- 0.00 dBAvg RMS: -9.84 dB --- -10.24 dBDR channel: 6.90 dB --- 7.55 dB--------------------------------------------------------------------------------
Official DR Value: DR7
Samplerate: 48000 HzChannels: 2Bits per sample: 24Bitrate: 1579 kbpsCodec: FLAC================================================================================

Спектрограммы

2017 - Radiant [16-24-bit FLAC] (29:58)

Издатель(лейбл): Endless Melancholy
Источник (релизер): bandcamp
Треклист:
01. An Invitation To Come In [4:14]
02. We Were Born From A Shooting Star [4:40]
03. Satellites [4:29]
04. I Will Never Unfollow You [5:00]
05. A Colorized Memory, An Uncertain Dream Or Something [3:20]
06. Yet Another Reason To Be Still [8:16]
Формат файла: FLAC (*.flac)
Тип рипа: tracks
Разрядность: 24/48
Формат файла: WAV (flac.ape.wv)
Количество каналов: 2.0

Динамический диапазон

foobar2000 1.3.19 / Dynamic Range Meter 1.1.1log date: 2018-11-09 18:15:18
--------------------------------------------------------------------------------Statistics for: 01-An Invitation To Come InNumber of samples: 11220693Duration: 4:14--------------------------------------------------------------------------------
Left Right
Peak Value: -0.19 dB --- -1.03 dBAvg RMS: -11.44 dB --- -12.81 dBDR channel: 9.20 dB --- 9.44 dB--------------------------------------------------------------------------------
Official DR Value: DR9
Samplerate: 44100 HzChannels: 2Bits per sample: 24Bitrate: 1532 kbpsCodec: FLAC================================================================================
foobar2000 1.3.19 / Dynamic Range Meter 1.1.1log date: 2018-11-09 18:15:28
--------------------------------------------------------------------------------Analyzed: Endless Melancholy / Radiant--------------------------------------------------------------------------------
DR Peak RMS Duration Track--------------------------------------------------------------------------------DR7 -0.10 dB -8.98 dB 4:40 02-We Were Born From A Shooting StarDR8 -0.10 dB -9.86 dB 4:29 03-SatellitesDR8 -0.40 dB -9.78 dB 5:00 04-I Will Never Unfollow YouDR8 -0.40 dB -9.90 dB 3:20 05-A Colorized Memory, An Uncertain Dream Or SomethingDR8 -0.10 dB -10.62 dB 8:16 06-Yet Another Reason To Be Still--------------------------------------------------------------------------------
Number of tracks: 5Official DR value: DR8
Samplerate: 44100 HzChannels: 2Bits per sample: 16Bitrate: 798 kbpsCodec: FLAC================================================================================

Спектрограммы

2017 - The Vacation [24-bit FLAC] (38:33)

Издатель(лейбл): Endless Melancholy
Источник (релизер): bandcamp
Треклист:
01. They had wakened one morning and the world was empty [4:35]
02. Stillness mixed with stillness [5:29]
03. "Wouldn't we be lonely?" [5:59]
04. His voice faded [3:06]
05. Sunflower wildernesses [5:12]
06. Earth that was now no more than a meadow [4:19]
07. Enough to cost us a lifetime [5:12]
08. And he had walked her through the still and empty city streets [4:41]
Формат файла: FLAC (*.flac)
Тип рипа: tracks
Разрядность: 24/48
Формат файла: WAV (flac.ape.wv)
Количество каналов: 2.0

Динамический диапазон

foobar2000 1.3.19 / Dynamic Range Meter 1.1.1log date: 2018-11-09 18:15:49
--------------------------------------------------------------------------------Analyzed: Endless Melancholy / The Vacation--------------------------------------------------------------------------------
DR Peak RMS Duration Track--------------------------------------------------------------------------------DR7 -0.01 dB -10.70 dB 4:35 01-They had wakened one morning and the world was emptyDR10 0.00 dB -13.27 dB 5:29 02-Stillness mixed with stillnessDR10 -0.01 dB -12.51 dB 5:59 03-"Wouldn't we be lonely?"DR6 -0.01 dB -8.51 dB 3:06 04-His voice fadedDR8 -0.01 dB -10.19 dB 5:12 05-Sunflower wildernessesDR9 -0.01 dB -11.64 dB 4:19 06-Earth that was now no more than a meadowDR8 -0.04 dB -10.47 dB 5:12 07-Enough to cost us a lifetimeDR7 -0.01 dB -9.67 dB 4:41 08-And he had walked her through the still and empty city streets--------------------------------------------------------------------------------
Number of tracks: 8Official DR value: DR8
Samplerate: 48000 HzChannels: 2Bits per sample: 24Bitrate: 1682 kbpsCodec: FLAC================================================================================

Спектрограммы

2018 - Winter Outtakes II [16-24-bit FLAC] (18:03)

Издатель(лейбл): Endless Melancholy
Источник (релизер): bandcamp
Треклист:
01. Embrace The Sunlight [5:54]
02. These Gloomy Days [6:59]
03. Aurora [5:10]
Формат файла: FLAC (*.flac)
Тип рипа: tracks
Разрядность: 24/48
Формат файла: WAV (flac.ape.wv)
Количество каналов: 2.0

Динамический диапазон

foobar2000 1.3.19 / Dynamic Range Meter 1.1.1log date: 2018-11-09 18:15:52
--------------------------------------------------------------------------------Statistics for: 01-Embrace The SunlightNumber of samples: 15611400Duration: 5:54--------------------------------------------------------------------------------
Left Right
Peak Value: -4.36 dB --- -4.35 dBAvg RMS: -14.83 dB --- -15.96 dBDR channel: 7.91 dB --- 8.79 dB--------------------------------------------------------------------------------
Official DR Value: DR8
Samplerate: 44100 HzChannels: 2Bits per sample: 24Bitrate: 1339 kbpsCodec: FLAC================================================================================
foobar2000 1.3.19 / Dynamic Range Meter 1.1.1log date: 2018-11-09 18:15:56
--------------------------------------------------------------------------------Analyzed: Endless Melancholy / Winter Outtakes II--------------------------------------------------------------------------------
DR Peak RMS Duration Track--------------------------------------------------------------------------------DR10 -0.40 dB -14.63 dB 6:59 02-These Gloomy DaysDR6 -0.29 dB -9.96 dB 5:10 03-Aurora--------------------------------------------------------------------------------
Number of tracks: 2Official DR value: DR8
Samplerate: 44100 HzChannels: 2Bits per sample: 16Bitrate: 885 kbpsCodec: FLAC================================================================================

Спектрограммы

Внимание! Для получения полной дискографии необходимо скачать также данную раздачу. Обе попадают в одну и ту же папку.


[torrentc.info]_t_5199385.torrent
Торрент: Зарегистрирован ·  [ 2018-11-14 22:01 ] ·  00a01d9ad42fd61cbd4d19e634b632bb94a0bfb2

93 KB

Статус: проверено
Скачан: 0 раз
Размер: 4.01 GB
Оценка: 
(Голосов: 0)
Сказали спасибо: 0  Спасибо
Похожие темы
[Профиль]    [ЛС]
Показать сообщения:    
Ответить на тему

Текущее время: Сегодня 06:24

Часовой пояс: GMT + 7



Вы не можете начинать темы
Вы не можете отвечать на сообщения
Вы не можете редактировать свои сообщения
Вы не можете удалять свои сообщения
Вы не можете голосовать в опросах
Вы не можете прикреплять файлы к сообщениям
Вы можете скачивать файлы