(Hard Bop) [CD] Philly Joe Jones - Six Classic Albums (1956-1960) {Blues for Dracula, Drums Around the World, Philly Joe\'s Beat, Showcase, Blue Serge, J.R. Monterose} (4CD) - 2012, FLAC (image+.cue), lossless

Ответить на тему
Статистика раздачи [Обновить пиров]
Размер:  1.3 GB   |    Зарегистрирован:  29 дней   |    Скачан:  0 раз

Полного источника не было: Никогда

 
   
 
 
 
Автор Сообщение

torrentc.info

Создавать темы 13-Ноя-2018 23:53

[Цитировать]

Philly Joe Jones - Six Classic Albums
Жанр: Hard Bop
Носитель: CD
Страна-производитель диска (релиза): EU
Год издания: 2012
Издатель (лейбл): Real Gone Jazz
Номер по каталогу: RGJCD345
Аудиокодек: FLAC (*.flac)
Тип рипа: image+.cue
Битрейт аудио: lossless
Продолжительность: 4:08:23
Источник (релизер): ssagwebster
Наличие сканов в содержимом раздачи: да

CD1 {63:49}

Blues for Dracula (1958)
01. Blues for Dracula [8:19]
02. Trick Street [3:54]
03. Fiesta [10:29]
04. Tune-Up [8:07]
05. Ow! [12:13]
Drums Around the World (1959)
06. Blue Gwynn [7:31]
07. Stablemates [5:56]
08. El Tambores (Carioca) [4:32]
09. The Tribal Message [2:53]

Лог создания рипа

Exact Audio Copy V1.0 beta 3 from 29. August 2011
EAC extraction logfile from 6. November 2018, 21:13
Philly Joe Jones / Six Classic Albums - CD1
Used drive : TSSTcorpCDDVDW SH-224FB Adapter: 1 ID: 0
Read mode : SecureUtilize accurate stream : YesDefeat audio cache : YesMake use of C2 pointers : No
Read offset correction : 6Overread into Lead-In and Lead-Out : NoFill up missing offset samples with silence : YesDelete leading and trailing silent blocks : NoNull samples used in CRC calculations : YesUsed interface : Native Win32 interface for Win NT & 2000
Used output format : User Defined EncoderSelected bitrate : 128 kBit/sQuality : HighAdd ID3 tag : NoCommand line compressor : C:\Program Files (x86)\Exact Audio Copy\Flac\flac.exeAdditional command line options : -V -8 -T "Genre=%genre%" -T "Artist=%artist%" -T "Title=%title%" -T "Album=%albumtitle%" -T "Date=%year%" -T "Tracknumber=%tracknr%" -T "Comment=%comment%" %source%
TOC of the extracted CD
Track | Start | Length | Start sector | End sector --------------------------------------------------------- 1 | 0:00.00 | 8:18.11 | 0 | 37360 2 | 8:18.11 | 3:53.19 | 37361 | 54854 3 | 12:11.30 | 10:28.04 | 54855 | 101958 4 | 22:39.34 | 8:06.34 | 101959 | 138442 5 | 30:45.68 | 12:12.18 | 138443 | 193360 6 | 42:58.11 | 7:30.71 | 193361 | 227181 7 | 50:29.07 | 5:55.65 | 227182 | 253871 8 | 56:24.72 | 4:31.29 | 253872 | 274225 9 | 60:56.26 | 2:52.34 | 274226 | 287159
Range status and errors
Selected range
Filename D:\ssagwebster\CD1\Philly Joe Jones - Six Classic Albums - CD1.wav
Peak level 100.0 % Extraction speed 3.2 X Range quality 100.0 % Test CRC 502A7457 Copy CRC 502A7457 Copy OK
No errors occurred
AccurateRip summary
Track 1 accurately ripped (confidence 8) [CA3E38C6] (AR v2)Track 2 accurately ripped (confidence 8) [9EF01465] (AR v2)Track 3 accurately ripped (confidence 8) [D72245ED] (AR v2)Track 4 accurately ripped (confidence 8) [266F32AD] (AR v2)Track 5 accurately ripped (confidence 8) [BADA1A81] (AR v2)Track 6 accurately ripped (confidence 8) [8363F522] (AR v2)Track 7 accurately ripped (confidence 8) [A77EFAE3] (AR v2)Track 8 accurately ripped (confidence 8) [8D296AEA] (AR v2)Track 9 accurately ripped (confidence 8) [B2CDFBA2] (AR v2)
All tracks accurately ripped
End of status report
==== Log checksum 5A6A2FD1D0BA7BBAD086B0AA07E84D37494CE657CB7FF000788A428735BDB904 ====

Содержание индексной карты (.CUE)

REM GENRE JazzREM DATE 2012REM DISCID 730EF409REM COMMENT "ExactAudioCopy v1.0b3"PERFORMER "Philly Joe Jones"TITLE "Six Classic Albums CD1"FILE "Philly Joe Jones - Six Classic Albums CD1.wav" WAVE TRACK 01 AUDIO TITLE "Blues for Dracula" PERFORMER "Philly Joe Jones" INDEX 01 00:00:00 TRACK 02 AUDIO TITLE "Trick Street" PERFORMER "Philly Joe Jones" INDEX 01 08:18:11 TRACK 03 AUDIO TITLE "Fiesta" PERFORMER "Philly Joe Jones" INDEX 01 12:11:30 TRACK 04 AUDIO TITLE "Tune-Up" PERFORMER "Philly Joe Jones" INDEX 01 22:39:34 TRACK 05 AUDIO TITLE "Ow!" PERFORMER "Philly Joe Jones" INDEX 01 30:45:68 TRACK 06 AUDIO TITLE "Blue Gwynn" PERFORMER "Philly Joe Jones" INDEX 01 42:58:11 TRACK 07 AUDIO TITLE "Stablemates" PERFORMER "Philly Joe Jones" INDEX 01 50:29:07 TRACK 08 AUDIO TITLE "El Tambores (Carioca)" PERFORMER "Philly Joe Jones" INDEX 01 56:24:72 TRACK 09 AUDIO TITLE "The Tribal Message" PERFORMER "Philly Joe Jones" INDEX 01 60:56:26

Отчет CUETools

[CUETools log; Date: 06.11.2018 19:47:06; Version: 2.1.5][CTDB TOCID: m2D6bHYc4TVyWa7SiW3lb0xoTvE-] found.Track | CTDB Status 1 | (5/5) Accurately ripped 2 | (5/5) Accurately ripped 3 | (5/5) Accurately ripped 4 | (5/5) Accurately ripped 5 | (5/5) Accurately ripped 6 | (5/5) Accurately ripped 7 | (5/5) Accurately ripped 8 | (5/5) Accurately ripped 9 | (5/5) Accurately ripped[AccurateRip ID: 0017eea3-00aedf25-730ef409] found.Track [ CRC | V2 ] Status 01 [e1d92c8d|ca3e38c6] (0+8/8) Accurately ripped 02 [121ec8ec|9ef01465] (0+8/8) Accurately ripped 03 [c47ad1f9|d72245ed] (0+8/8) Accurately ripped 04 [b7f84c16|266f32ad] (0+8/8) Accurately ripped 05 [0c0c6460|bada1a81] (0+8/8) Accurately ripped 06 [e42bd298|8363f522] (0+8/8) Accurately ripped 07 [2a766b82|a77efae3] (0+8/8) Accurately ripped 08 [54a97df2|8d296aea] (0+8/8) Accurately ripped 09 [695d08dc|b2cdfba2] (0+8/8) Accurately ripped
Track Peak [ CRC32 ] [W/O NULL] [ LOG ] -- 100,0 [502A7457] [A3A14111] CRC32 01 99,6 [22974654] [A1C584F9] 02 96,4 [550A5D47] [E871A2E6] 03 99,2 [9D3547D4] [3E7CF7D3] 04 88,8 [7B9E252D] [BA79116B] 05 86,4 [205CC6D5] [A6531198] 06 100,0 [E2C14A32] [74983E0A] 07 100,0 [9B158383] [696065A5] 08 86,4 [085E3C6E] [9D886013] 09 95,4 [02E92C64] [D3B6FD73]

CD2 {59:16}

Drums Around the World (1959) cont.
01. Cherokee [8:20]
02. Land of the Blue Veils [3:41]
03. Philly J.J. [10:13]
Philly Joe's Beat (1960)
04. Salt Peanuts [6:16]
05. Muse Rapture [6:03]
06. Dear Old Stockholm [5:37]
07. Two Bass Hit [4:36]
08. Lori [5:24]
09. Got to Take Another Chance [4:06]
10. That's Earl Brother [5:06]

Лог создания рипа

Exact Audio Copy V1.0 beta 3 from 29. August 2011
EAC extraction logfile from 20. July 2017, 16:11
Philly Joe Jones / CD2 - Drums Around The World & Philly Joe´s Beat
Used drive : TSSTcorpCDDVDW SH-224FB Adapter: 1 ID: 0
Read mode : SecureUtilize accurate stream : YesDefeat audio cache : YesMake use of C2 pointers : No
Read offset correction : 6Overread into Lead-In and Lead-Out : NoFill up missing offset samples with silence : YesDelete leading and trailing silent blocks : NoNull samples used in CRC calculations : YesUsed interface : Native Win32 interface for Win NT & 2000
Used output format : User Defined EncoderSelected bitrate : 128 kBit/sQuality : HighAdd ID3 tag : NoCommand line compressor : C:\Program Files (x86)\Exact Audio Copy\Flac\flac.exeAdditional command line options : -V -8 -T "Genre=%genre%" -T "Artist=%artist%" -T "Title=%title%" -T "Album=%albumtitle%" -T "Date=%year%" -T "Tracknumber=%tracknr%" -T "Comment=%comment%" %source%
TOC of the extracted CD
Track | Start | Length | Start sector | End sector --------------------------------------------------------- 1 | 0:00.00 | 8:19.49 | 0 | 37473 2 | 8:19.49 | 3:40.32 | 37474 | 54005 3 | 12:00.06 | 10:12.52 | 54006 | 99957 4 | 22:12.58 | 6:15.17 | 99958 | 128099 5 | 28:28.00 | 6:02.13 | 128100 | 155262 6 | 34:30.13 | 5:36.10 | 155263 | 180472 7 | 40:06.23 | 4:35.45 | 180473 | 201142 8 | 44:41.68 | 5:23.35 | 201143 | 225402 9 | 50:05.28 | 4:05.55 | 225403 | 243832 10 | 54:11.08 | 5:05.10 | 243833 | 266717
Range status and errors
Selected range
Filename D:\Download\Philly Joe Jones - Six Classic Albums (4CD, 2012)\CD2 - Drums Around The World & Philly Joe´s Beat\Philly Joe Jones - CD2 - Drums Around The World & Philly Joe´s Beat.wav
Peak level 98.8 % Extraction speed 3.1 X Range quality 100.0 % Test CRC 7F26ADC3 Copy CRC 7F26ADC3 Copy OK
No errors occurred
AccurateRip summary
Track 1 accurately ripped (confidence 8) [254543EC] (AR v2)Track 2 accurately ripped (confidence 8) [EF883639] (AR v2)Track 3 accurately ripped (confidence 8) [A87C85A3] (AR v2)Track 4 accurately ripped (confidence 8) [D0B53A86] (AR v2)Track 5 accurately ripped (confidence 8) [E05B6BFA] (AR v2)Track 6 accurately ripped (confidence 8) [858099AF] (AR v2)Track 7 accurately ripped (confidence 8) [29C54EA1] (AR v2)Track 8 accurately ripped (confidence 8) [2A104141] (AR v2)Track 9 accurately ripped (confidence 8) [84D08A53] (AR v2)Track 10 accurately ripped (confidence 8) [B72337B9] (AR v2)
All tracks accurately ripped
End of status report
==== Log checksum 6262ABEC20901E202B8EF713C2934BF8E46491CA022F2878CBDCB113381DFDC9 ====

Содержание индексной карты (.CUE)

REM GENRE JazzREM DATE 2012REM DISCID 6A0DE40AREM COMMENT "ExactAudioCopy v1.0b3"PERFORMER "Philly Joe Jones"TITLE "Six Classic Albums CD2"FILE "Philly Joe Jones - Six Classic Albums CD2.wav" WAVE TRACK 01 AUDIO TITLE "Cherokee" PERFORMER "Philly Joe Jones" INDEX 01 00:00:00 TRACK 02 AUDIO TITLE "Land of the Blue Veils" PERFORMER "Philly Joe Jones" INDEX 01 08:19:49 TRACK 03 AUDIO TITLE "Philly J.J." PERFORMER "Philly Joe Jones" INDEX 01 12:00:06 TRACK 04 AUDIO TITLE "Salt Peanuts" PERFORMER "Philly Joe Jones" INDEX 01 22:12:58 TRACK 05 AUDIO TITLE "Muse Rapture" PERFORMER "Philly Joe Jones" INDEX 01 28:28:00 TRACK 06 AUDIO TITLE "Dear Old Stockholm" PERFORMER "Philly Joe Jones" INDEX 01 34:30:13 TRACK 07 AUDIO TITLE "Two Bass Hit" PERFORMER "Philly Joe Jones" INDEX 01 40:06:23 TRACK 08 AUDIO TITLE "Lori" PERFORMER "Philly Joe Jones" INDEX 01 44:41:68 TRACK 09 AUDIO TITLE "Got to Take Another Chance" PERFORMER "Philly Joe Jones" INDEX 01 50:05:28 TRACK 10 AUDIO TITLE "That's Earl Brother" PERFORMER "Philly Joe Jones" INDEX 01 54:11:08

Отчет CUETools

[CUETools log; Date: 06.11.2018 19:47:16; Version: 2.1.5][CTDB TOCID: khkW36LY_FQ.hmgQUrbl4G8m4FM-] found.Track | CTDB Status 1 | (3/3) Accurately ripped 2 | (3/3) Accurately ripped 3 | (3/3) Accurately ripped 4 | (3/3) Accurately ripped 5 | (3/3) Accurately ripped 6 | (3/3) Accurately ripped 7 | (3/3) Accurately ripped 8 | (3/3) Accurately ripped 9 | (3/3) Accurately ripped 10 | (3/3) Accurately ripped[AccurateRip ID: 00184c33-00be768b-6a0de40a] found.Track [ CRC | V2 ] Status 01 [0866dcd7|254543ec] (0+8/8) Accurately ripped 02 [5ad0179e|ef883639] (0+8/8) Accurately ripped 03 [eeb54705|a87c85a3] (0+8/8) Accurately ripped 04 [7dba4337|d0b53a86] (0+8/8) Accurately ripped 05 [c86a96c1|e05b6bfa] (0+8/8) Accurately ripped 06 [6813213b|858099af] (0+8/8) Accurately ripped 07 [c55255f5|29c54ea1] (0+8/8) Accurately ripped 08 [274d8231|2a104141] (0+8/8) Accurately ripped 09 [003ede52|84d08a53] (0+8/8) Accurately ripped 10 [8e4415ab|b72337b9] (0+8/8) Accurately ripped
Track Peak [ CRC32 ] [W/O NULL] [ LOG ] -- 98,8 [7F26ADC3] [CB18C3D7] CRC32 01 89,1 [B6404EE1] [8587DB85] 02 94,7 [8D9196B7] [2C8778B7] 03 89,1 [90E961B9] [E48C08A3] 04 98,8 [DB359AC3] [BA3E43CB] 05 98,8 [4A42EAD2] [7CB760F2] 06 98,8 [42CFAC87] [03543EB5] 07 98,8 [2E9EE6B2] [ED85B9CB] 08 98,8 [E58E477C] [BA394E47] 09 98,8 [B46A360B] [113E2314] 10 98,8 [6449D4DC] [D16635D5]

CD3 {58:02}

Showcase (1959)
01. Battery Blues [4:08]
02. Minor Mode [4:28]
03. Gwen [4:02]
04. Joe's Debut [5:37]
05. Gone [4:42]
06. Joe's Delight [3:54]
07. Julia [3:27]
08. I'll Never Be the Same [4:02]
09. Interpretation [4:06]
Serge Chaloff - Blue Serge (1956)
10. A Handful of Stars [5:36]
11. The Goof and I [4:48]
12. Thanks for the Memory [3:49]
13. All the Things You Are [5:28]

Лог создания рипа

Exact Audio Copy V1.0 beta 3 from 29. August 2011
EAC extraction logfile from 20. July 2017, 23:39
Philly Joe Jones & Serge Chaloff / CD3 - Showcase & Blue Serge
Used drive : TSSTcorpCDDVDW SH-224FB Adapter: 1 ID: 0
Read mode : SecureUtilize accurate stream : YesDefeat audio cache : YesMake use of C2 pointers : No
Read offset correction : 6Overread into Lead-In and Lead-Out : NoFill up missing offset samples with silence : YesDelete leading and trailing silent blocks : NoNull samples used in CRC calculations : YesUsed interface : Native Win32 interface for Win NT & 2000
Used output format : User Defined EncoderSelected bitrate : 128 kBit/sQuality : HighAdd ID3 tag : NoCommand line compressor : C:\Program Files (x86)\Exact Audio Copy\Flac\flac.exeAdditional command line options : -V -8 -T "Genre=%genre%" -T "Artist=%artist%" -T "Title=%title%" -T "Album=%albumtitle%" -T "Date=%year%" -T "Tracknumber=%tracknr%" -T "Comment=%comment%" %source%
TOC of the extracted CD
Track | Start | Length | Start sector | End sector --------------------------------------------------------- 1 | 0:00.00 | 4:07.27 | 0 | 18551 2 | 4:07.27 | 4:27.63 | 18552 | 38639 3 | 8:35.15 | 4:01.66 | 38640 | 56780 4 | 12:37.06 | 5:36.64 | 56781 | 82044 5 | 18:13.70 | 4:41.70 | 82045 | 103189 6 | 22:55.65 | 3:53.69 | 103190 | 120733 7 | 26:49.59 | 3:26.11 | 120734 | 136194 8 | 30:15.70 | 4:01.54 | 136195 | 154323 9 | 34:17.49 | 4:05.24 | 154324 | 172722 10 | 38:22.73 | 5:35.70 | 172723 | 197917 11 | 43:58.68 | 4:47.07 | 197918 | 219449 12 | 48:46.00 | 3:48.55 | 219450 | 236604 13 | 52:34.55 | 5:27.23 | 236605 | 261152
Range status and errors
Selected range
Filename D:\Download\Philly Joe Jones - Six Classic Albums (4CD, 2012)\CD3 - Showcase & Blue Serge\Philly Joe Jones & Serge Chaloff - CD3 - Showcase & Blue Serge.wav
Peak level 100.0 % Extraction speed 3.1 X Range quality 99.9 % Test CRC C744C6C4 Copy CRC C744C6C4 Copy OK
No errors occurred
AccurateRip summary
Track 1 accurately ripped (confidence 8) [F224BA2C] (AR v2)Track 2 accurately ripped (confidence 8) [7A123AA2] (AR v2)Track 3 accurately ripped (confidence 8) [3CBF65BF] (AR v2)Track 4 accurately ripped (confidence 8) [058AF0CD] (AR v2)Track 5 accurately ripped (confidence 8) [B59A2C74] (AR v2)Track 6 accurately ripped (confidence 8) [20337A06] (AR v2)Track 7 accurately ripped (confidence 8) [5907CE86] (AR v2)Track 8 accurately ripped (confidence 8) [E73339FC] (AR v2)Track 9 accurately ripped (confidence 8) [D76F72F0] (AR v2)Track 10 accurately ripped (confidence 7) [BE7E2A0F] (AR v2)Track 11 accurately ripped (confidence 7) [1FB8480A] (AR v2)Track 12 accurately ripped (confidence 7) [73580EFC] (AR v2)Track 13 accurately ripped (confidence 7) [BAB20EF9] (AR v2)
All tracks accurately ripped
End of status report
==== Log checksum FA5AB85A88A2FE165E8DC98146D2110EFC314D85CF14A6DCFEBD7595127035BF ====

Содержание индексной карты (.CUE)

REM GENRE JazzREM DATE 2012REM DISCID B70D9A0DREM COMMENT "ExactAudioCopy v1.0b3"PERFORMER "Philly Joe Jones"TITLE "Six Classic Albums CD3"FILE "Philly Joe Jones - Six Classic Albums CD3.wav" WAVE TRACK 01 AUDIO TITLE "Battery Blues" PERFORMER "Philly Joe Jones" INDEX 01 00:00:00 TRACK 02 AUDIO TITLE "Minor Mode" PERFORMER "Philly Joe Jones" INDEX 01 04:07:27 TRACK 03 AUDIO TITLE "Gwen" PERFORMER "Philly Joe Jones" INDEX 01 08:35:15 TRACK 04 AUDIO TITLE "Joe's Debut" PERFORMER "Philly Joe Jones" INDEX 01 12:37:06 TRACK 05 AUDIO TITLE "Gone" PERFORMER "Philly Joe Jones" INDEX 01 18:13:70 TRACK 06 AUDIO TITLE "Joe's Delight" PERFORMER "Philly Joe Jones" INDEX 01 22:55:65 TRACK 07 AUDIO TITLE "Julia" PERFORMER "Philly Joe Jones" INDEX 01 26:49:59 TRACK 08 AUDIO TITLE "I'll Never Be the Same" PERFORMER "Philly Joe Jones" INDEX 01 30:15:70 TRACK 09 AUDIO TITLE "Interpretation" PERFORMER "Philly Joe Jones" INDEX 01 34:17:49 TRACK 10 AUDIO TITLE "A Handful of Stars" PERFORMER "Philly Joe Jones" INDEX 01 38:22:73 TRACK 11 AUDIO TITLE "The Goof and I" PERFORMER "Philly Joe Jones" INDEX 01 43:58:68 TRACK 12 AUDIO TITLE "Thanks for the Memory" PERFORMER "Philly Joe Jones" INDEX 01 48:46:00 TRACK 13 AUDIO TITLE "All the Things You Are" PERFORMER "Philly Joe Jones" INDEX 01 52:34:55

Отчет CUETools

[CUETools log; Date: 06.11.2018 19:47:26; Version: 2.1.5][CTDB TOCID: 5Bu2LTiPoF4iO6BanBXxeDZGJ98-] found.Track | CTDB Status 1 | (4/4) Accurately ripped 2 | (4/4) Accurately ripped 3 | (4/4) Accurately ripped 4 | (4/4) Accurately ripped 5 | (4/4) Accurately ripped 6 | (4/4) Accurately ripped 7 | (4/4) Accurately ripped 8 | (4/4) Accurately ripped 9 | (4/4) Accurately ripped 10 | (4/4) Accurately ripped 11 | (4/4) Accurately ripped 12 | (4/4) Accurately ripped 13 | (4/4) Accurately ripped[AccurateRip ID: 001b70a6-0112b3af-b70d9a0d] found.Track [ CRC | V2 ] Status 01 [340541a4|f224ba2c] (0+8/8) Accurately ripped 02 [4740a2da|7a123aa2] (0+8/8) Accurately ripped 03 [0fb29f70|3cbf65bf] (0+8/8) Accurately ripped 04 [7f32e307|058af0cd] (0+8/8) Accurately ripped 05 [7903196d|b59a2c74] (0+8/8) Accurately ripped 06 [5cde30fb|20337a06] (0+8/8) Accurately ripped 07 [23f0a83a|5907ce86] (0+8/8) Accurately ripped 08 [75497156|e73339fc] (0+8/8) Accurately ripped 09 [ec946581|d76f72f0] (0+8/8) Accurately ripped 10 [3c24cbbb|be7e2a0f] (0+7/7) Accurately ripped 11 [339edb91|1fb8480a] (0+7/7) Accurately ripped 12 [11bc262f|73580efc] (0+7/7) Accurately ripped 13 [33613bcf|bab20ef9] (0+7/7) Accurately ripped
Track Peak [ CRC32 ] [W/O NULL] [ LOG ] -- 100,0 [C744C6C4] [FFF58E4B] CRC32 01 98,1 [952F4CF5] [45954009] 02 100,0 [3798717D] [FD67BDAF] 03 70,7 [F114BDFF] [64E49777] 04 99,9 [567D08FF] [97428F13] 05 99,9 [D1232259] [A416C0DE] 06 92,6 [A5A764C5] [723C205E] 07 88,7 [B912C09C] [DA748652] 08 74,6 [D5B368FD] [9EB0E947] 09 80,7 [E49E7D89] [9EE02F67] 10 98,8 [639B2D2F] [FE19FC16] 11 98,8 [47BA13AE] [8D31F0B1] 12 98,8 [B11ACCF8] [41CDFB1D] 13 98,8 [D27BFE5E] [4122D071]

CD4 {67:16}

Serge Chaloff - Blue Serge (1956) cont.
01. I've Got the World on a String [6:46]
02. Susie's Blues [5:11]
03. Stairway to the Stars [4:53]
04. How About You? [5:25]
J.R. Monterose (1956)
05. Wee-Jay [6:57]
06. The Third [5:17]
07. Bobbie Pin [8:06]
08. Marc V [6:35]
09. La-Link [9:02]
10. Beauteous [5:25]
Bonus Track
11. Joe Castro - You Stepped Out of a Dream [3:44]

Лог создания рипа

Exact Audio Copy V1.0 beta 3 from 29. August 2011
EAC extraction logfile from 21. July 2017, 0:34
Philly Joe Jones & J.R.Monterose / CD4 - Blue Serge & Monterose
Used drive : TSSTcorpCDDVDW SH-224FB Adapter: 1 ID: 0
Read mode : SecureUtilize accurate stream : YesDefeat audio cache : YesMake use of C2 pointers : No
Read offset correction : 6Overread into Lead-In and Lead-Out : NoFill up missing offset samples with silence : YesDelete leading and trailing silent blocks : NoNull samples used in CRC calculations : YesUsed interface : Native Win32 interface for Win NT & 2000
Used output format : User Defined EncoderSelected bitrate : 128 kBit/sQuality : HighAdd ID3 tag : NoCommand line compressor : C:\Program Files (x86)\Exact Audio Copy\Flac\flac.exeAdditional command line options : -V -8 -T "Genre=%genre%" -T "Artist=%artist%" -T "Title=%title%" -T "Album=%albumtitle%" -T "Date=%year%" -T "Tracknumber=%tracknr%" -T "Comment=%comment%" %source%
TOC of the extracted CD
Track | Start | Length | Start sector | End sector --------------------------------------------------------- 1 | 0:00.00 | 6:45.26 | 0 | 30400 2 | 6:45.26 | 5:10.23 | 30401 | 53673 3 | 11:55.49 | 4:52.31 | 53674 | 75604 4 | 16:48.05 | 5:24.18 | 75605 | 99922 5 | 22:12.23 | 6:56.68 | 99923 | 131190 6 | 29:09.16 | 5:16.73 | 131191 | 154963 7 | 34:26.14 | 8:05.25 | 154964 | 191363 8 | 42:31.39 | 6:34.42 | 191364 | 220955 9 | 49:06.06 | 9:01.33 | 220956 | 261563 10 | 58:07.39 | 5:24.32 | 261564 | 285895 11 | 63:31.71 | 3:43.63 | 285896 | 302683
Range status and errors
Selected range
Filename D:\Download\Philly Joe Jones - Six Classic Albums (4CD, 2012)\CD4 - Blue Serge & Monterose\Philly Joe Jones & J.R.Monterose - CD4 - Blue Serge & Monterose.wav
Peak level 100.0 % Extraction speed 3.2 X Range quality 99.9 % Test CRC ED13AE1A Copy CRC ED13AE1A Copy OK
No errors occurred
AccurateRip summary
Track 1 accurately ripped (confidence 4) [8B6F98A1] (AR v2)Track 2 accurately ripped (confidence 4) [4FA4B1E9] (AR v2)Track 3 accurately ripped (confidence 4) [B16FE957] (AR v2)Track 4 accurately ripped (confidence 5) [09ED43CE] (AR v2)Track 5 accurately ripped (confidence 6) [06D938C5] (AR v2)Track 6 accurately ripped (confidence 6) [C0BC8E52] (AR v2)Track 7 accurately ripped (confidence 6) [A34E1D83] (AR v2)Track 8 accurately ripped (confidence 6) [948509D9] (AR v2)Track 9 accurately ripped (confidence 6) [06E9A2EB] (AR v2)Track 10 accurately ripped (confidence 6) [21370F75] (AR v2)Track 11 accurately ripped (confidence 5) [4F60C4D2] (AR v2)
All tracks accurately ripped
End of status report
==== Log checksum 64AE73EF13F1653D717BE803D5515193A4375E489BA8AB7FC7BCD1C33F5A5009 ====

Содержание индексной карты (.CUE)

REM GENRE JazzREM DATE 2012REM DISCID 940FC30BREM COMMENT "ExactAudioCopy v1.0b3"PERFORMER "Philly Joe Jones"TITLE "Six Classic Albums CD4"FILE "Philly Joe Jones - Six Classic Albums CD4.wav" WAVE TRACK 01 AUDIO TITLE "I've Got the World on a String" PERFORMER "Philly Joe Jones" INDEX 01 00:00:00 TRACK 02 AUDIO TITLE "Susie's Blues" PERFORMER "Philly Joe Jones" INDEX 01 06:45:26 TRACK 03 AUDIO TITLE "Stairway to the Stars" PERFORMER "Philly Joe Jones" INDEX 01 11:55:49 TRACK 04 AUDIO TITLE "How About You?" PERFORMER "Philly Joe Jones" INDEX 01 16:48:05 TRACK 05 AUDIO TITLE "Wee-Jay" PERFORMER "Philly Joe Jones" INDEX 01 22:12:23 TRACK 06 AUDIO TITLE "The Third" PERFORMER "Philly Joe Jones" INDEX 01 29:09:16 TRACK 07 AUDIO TITLE "Bobbie Pin" PERFORMER "Philly Joe Jones" INDEX 01 34:26:14 TRACK 08 AUDIO TITLE "Marc V" PERFORMER "Philly Joe Jones" INDEX 01 42:31:39 TRACK 09 AUDIO TITLE "La-Link" PERFORMER "Philly Joe Jones" INDEX 01 49:06:06 TRACK 10 AUDIO TITLE "Beauteous" PERFORMER "Philly Joe Jones" INDEX 01 58:07:39 TRACK 11 AUDIO TITLE "You Stepped Out of a Dream" PERFORMER "Philly Joe Jones" INDEX 01 63:31:71

Отчет CUETools

[CUETools log; Date: 06.11.2018 19:47:36; Version: 2.1.5][CTDB TOCID: thWJnz6h6b6AxiwYa6ZvcbK11MY-] found.Track | CTDB Status 1 | (3/3) Accurately ripped 2 | (3/3) Accurately ripped 3 | (3/3) Accurately ripped 4 | (3/3) Accurately ripped 5 | (3/3) Accurately ripped 6 | (3/3) Accurately ripped 7 | (3/3) Accurately ripped 8 | (3/3) Accurately ripped 9 | (3/3) Accurately ripped 10 | (3/3) Accurately ripped 11 | (3/3) Accurately ripped[AccurateRip ID: 001b975e-00f135e6-940fc30b] found.Track [ CRC | V2 ] Status 01 [e0b1a91f|8b6f98a1] (0+4/4) Accurately ripped 02 [04499cab|4fa4b1e9] (0+4/4) Accurately ripped 03 [f54920fe|b16fe957] (0+4/4) Accurately ripped 04 [b488e5f3|09ed43ce] (0+5/5) Accurately ripped 05 [ead4b92b|06d938c5] (0+6/6) Accurately ripped 06 [27173407|c0bc8e52] (0+6/6) Accurately ripped 07 [07c839b2|a34e1d83] (0+6/6) Accurately ripped 08 [45ae3b67|948509d9] (0+6/6) Accurately ripped 09 [09dd55df|06e9a2eb] (0+6/6) Accurately ripped 10 [9c11126e|21370f75] (0+6/6) Accurately ripped 11 [f1205640|4f60c4d2] (0+5/5) Accurately ripped
Track Peak [ CRC32 ] [W/O NULL] [ LOG ] -- 100,0 [ED13AE1A] [486C64DA] CRC32 01 96,2 [6D2AFA35] [F65BC288] 02 97,5 [FDFD10A5] [D7F9E36E] 03 98,8 [96236ADD] [F37275B5] 04 98,8 [6CB0B821] [F5DA3C3E] 05 69,4 [507AEB2B] [2CCC1C68] 06 66,4 [1C6C4CBC] [9BF0A38E] 07 68,6 [0726C41A] [D5FD5995] 08 69,9 [0E3B5640] [B08579B7] 09 65,6 [E0B3A365] [2E2FC208] 10 62,3 [D20F1A07] [E5219737] 11 100,0 [51DA07A5] [6152DE2A]


[torrentc.info]_t_5640454.torrent
Торрент: Зарегистрирован ·  [ 2018-11-13 23:52 ] ·  b7ea4f34ecabeabce3d5e7eacc978c16c4416cb9

15 KB

Статус: проверено
Скачан: 0 раз
Размер: 1.3 GB
Оценка: 
(Голосов: 0)
Сказали спасибо: 0  Спасибо
Похожие темы
[Профиль]    [ЛС]
Показать сообщения:    
Ответить на тему

Текущее время: Сегодня 02:27

Часовой пояс: GMT + 7



Вы не можете начинать темы
Вы не можете отвечать на сообщения
Вы не можете редактировать свои сообщения
Вы не можете удалять свои сообщения
Вы не можете голосовать в опросах
Вы не можете прикреплять файлы к сообщениям
Вы можете скачивать файлы