Кин / Kin (Джонатан Бэйкер / Jonathan Baker, Джош Бэйкер / Josh Baker) [2018, США, фантастика, боевик, BDRip] Dub (iTunes) + Sub (Eng) + Original Eng

Ответить на тему
 
Автор Сообщение

torrentc.info

Создавать темы 11-Ноя-2018 15:27

[Цитировать]

Кин / Kin
[img=right]https://i3.imageban.ru/out/2018/11/11/05e118252054d...1ae3ff.png[/img]
Страна: США
Жанр: фантастика, боевик
Год выхода: 2018
Продолжительность: 01:42:54-Перевод: Профессиональный (дублированный) | iTunes
Субтитры: английские
Оригинальная аудиодорожка: английский-Режиссер: Джонатан Бэйкер / Jonathan Baker, Джош Бэйкер / Josh Baker-В ролях: Майлс Труитт, Джек Рейнор, Деннис Куэйд, Зои Кравиц, Джеймс Франко, Кэрри Кун, Йен Мэтьюз, Гэвин Фокс, Стефан Гарно, Лукас Пенар-Описание: Обнаружив инопланетное оружие, об истинной мощи которого можно только догадываться, обычный школьник оказывается в эпицентре крупных проблем: охоту на него и его брата открывает армия пришельцев, спецслужбы и гангстеры. Он не выбирал эту судьбу, но теперь только от него зависит — спасет загадочный артефакт наш мир или погубит…-Качество видео: BDRip | KIN_2018_RMX_BLUEBIRD
Формат файла: AVI
Видео: 720x304 (2.37:1), 23.976 fps, XviD build 73 ~2191 kbps avg, 0.42 bit/pixel
Аудио: 48 kHz, AC3 Dolby Digital, 3/2 (L,C,R,l,r) + LFE ch, ~384 kbps | RUS
Аудио: 48 kHz, AC3 Dolby Digital, 3/2 (L,C,R,l,r) + LFE ch, ~448 kbps | ENG-

Сэмпл-

MediaInfo

Формат файла                                   : AVI
Формат файла/Информация                        : Audio Video Interleave
Профиль формата                          : OpenDML
Размер файла                             : 2,18 Гбайт
Продолжительность                        : 1 ч. 42 м.
Общий поток                              : 3029 Кбит/сек
Программа кодирования                    : VirtualDubMod 1.5.10.3 | www.virtualdub-fr.org || (build 2550/release)
Библиотека кодирования                   : VirtualDubMod build 2550/release
Видео
Идентификатор                            : 0
Формат файла                                   : MPEG-4 Visual
Профиль формата                          : Advanced Simple@L5
Настройки формата                        : BVOP1 / Custom Matrix
Параметр BVOP формата                    : 1
Параметр QPel формата                    : Нет
Параметр GMC формата                     : Без точки перехода
Параметр матрицы формата                 : Выборочная
Идентификатор кодека                     : XVID
Идентификатор кодека/Подсказка           : XviD
Продолжительность                        : 1 ч. 42 м.
Битрейт                                  : 2180 Кбит/сек
Ширина                                   : 720 пикселей
Высота                                   : 304 пикселя
Соотношение сторон                       : 2,35:1
Частота кадров                           : 23,976 (24000/1001) кадра/сек
Цветовое пространство                    : YUV
Субдискретизация насыщенности            : 4:2:0
Битовая глубина                          : 8 бит
Тип развёртки                            : Прогрессивная
Метод сжатия                             : С потерями
Бит/(Пиксели*Кадры)                      : 0.415
Размер потока                            : 1,57 Гбайт (72%)
Библиотека кодирования                   : XviD 73
Аудио #1
Идентификатор                            : 1
Формат файла                                   : AC-3
Формат файла/Информация                        : Audio Coding 3
Коммерческое название                    : Dolby Digital
Идентификатор кодека                     : 2000
Продолжительность                        : 1 ч. 42 м.
Вид битрейта                             : Постоянный
Битрейт                                  : 384 Кбит/сек
Каналы                                   : 6 каналов
Channel layout                           : L R C LFE Ls Rs
Частота                                  : 48,0 КГц
Частота кадров                           : 31,250 кадров/сек (1536 SPF)
Битовая глубина                          : 16 бит
Метод сжатия                             : С потерями
Размер потока                            : 282 Мбайт (13%)
Выравнивание                             : Разделение по промежуткам
Продолжительность промежутка             : 42  мс. (1,00 видеокадр)
Время предзагрузки промежутка            : 500  мс.
ServiceKind/String                       : Complete Main
Аудио #2
Идентификатор                            : 2
Формат файла                                   : AC-3
Формат файла/Информация                        : Audio Coding 3
Коммерческое название                    : Dolby Digital
Идентификатор кодека                     : 2000
Продолжительность                        : 1 ч. 42 м.
Вид битрейта                             : Постоянный
Битрейт                                  : 448 Кбит/сек
Каналы                                   : 6 каналов
Channel layout                           : L R C LFE Ls Rs
Частота                                  : 48,0 КГц
Частота кадров                           : 31,250 кадров/сек (1536 SPF)
Битовая глубина                          : 16 бит
Метод сжатия                             : С потерями
Размер потока                            : 330 Мбайт (15%)
Выравнивание                             : Разделение по промежуткам
Продолжительность промежутка             : 42  мс. (1,00 видеокадр)
Время предзагрузки промежутка            : 500  мс.
ServiceKind/String                       : Complete Main
[Профиль]    [ЛС]
Показать сообщения:    
Ответить на тему

Текущее время: Сегодня 12:56

Часовой пояс: GMT + 7



Вы не можете начинать темы
Вы не можете отвечать на сообщения
Вы не можете редактировать свои сообщения
Вы не можете удалять свои сообщения
Вы не можете голосовать в опросах
Вы не можете прикреплять файлы к сообщениям
Вы не можете скачивать файлы