Нас не догонят / Joueurs / Treat Me Like Fire (Мари Монж / Marie Monge) [2018, Франция, драма, WEB-DLRip-AVC] MVO (iTunes)

Ответить на тему
 
Автор Сообщение

torrentc.info

Создавать темы 09-Ноя-2018 00:06

[Цитировать]

-Нас не догонят / Joueurs / Treat Me Like Fire-- -Страна: Франция
Жанр: драма
Год выхода: 2018
Продолжительность: 01:47:12-Перевод: Профессиональный (многоголосый закадровый) iTunes
Субтитры: нет
Оригинальная аудиодорожка: нет-Режиссер: Мари Монж / Marie Monge-В ролях: Тахар Рахим, Стэйси Мартин, Брюно Волкович, Карим Леклу, Мари Денарно, Жан-Мишель Коррейя, Анри-Ноэль Табари, Джонатан Кузини, Роман Коссовски, Алассан Траоре, Джамел Барек, Йонас Динал, Николас Ретаби, Мао Молларе, Роми Базиз, Барнабе Кастанье, Летисия Гутиеррез, Серж Бурлон, Рафик Реджен, Николас Леви, Вирджиния Монтель, Милинко Спасойвеч, Лин Фе, Сандрин Гилбо, Себастьян Шаво, Анджело Айбар-Описание: Спонтанный и привлекательный Абель — невероятный любовник и азартный игрок. После внезапной встречи с ним заурядная жизнь Эллы полностью меняется. Вместе они пускаются в манящий подпольный мир казино, где всем правят адреналин и высокие ставки. Их зависимость становится обоюдной, что удваивает шансы и повышает риски. История любви, начавшаяся с простого пари, вскоре превращается в неконтролируемую страсть к игре и друг другу.-[img]https://rating.kinopoisk.ru/1116020.gif[/img]- -Качество видео: WEB-DLRip-AVC / Joueurs.2018.WEBDL.1080p.iTunes.RUS-ylnian
Формат файла: MKV-Видео: MPEG-4 AVC, 936x392 (2.40:1), 24.000 fps, ~1513 kbps avg, 0.172 bit/pixel
Аудио: 48 kHz, AC3 Dolby Digital, 3/2 (L,C,R,l,r) + LFE ch, ~384 kbps avg-

MediaInfo

Complete name               : D:\Раздача\Нас не догонят (2018) WEB-DLRip-AVC_ivanes20031987.mkv
Format                      : Matroska
Format version              : Version 2
File size                   : 1.45 GiB
Duration                    : 1 h 47 min
Overall bit rate            : 1 936 kb/s
Movie name                  : Нас не догонят (2018) WEB-DLRip-AVC_ivanes20031987
Encoded date                : UTC 2018-11-08 14:00:51
Writing application         : mkvmerge v4.4.0 ('Die Wiederkehr') сборка от Jan  3 2011 21:40:45
Writing library             : libebml v1.0.0 + libmatroska v1.0.0
Cover                       : Yes
Attachments                 : cover.jpg
Video
ID                          : 1
Format                      : AVC
Format/Info                 : Advanced Video Codec
Format profile              : High@L4.1
Format settings, CABAC      : Yes
Format settings, RefFrames  : 11 frames
Codec ID                    : V_MPEG4/ISO/AVC
Duration                    : 1 h 47 min
Bit rate                    : 1 513 kb/s
Width                       : 936 pixels
Height                      : 392 pixels
Display aspect ratio        : 2.40:1
Frame rate mode             : Constant
Frame rate                  : 24.000 FPS
Color space                 : YUV
Chroma subsampling          : 4:2:0
Bit depth                   : 8 bits
Scan type                   : Progressive
Bits/(Pixel*Frame)          : 0.172
Stream size                 : 1.13 GiB (78%)
Title                       : Rip by ivanes20031987
Writing library             : x264 core 157 r2935 545de2f
Encoding settings           : cabac=1 / ref=11 / deblock=1:-3:-3 / analyse=0x3:0x113 / me=umh / subme=10 / psy=1 / psy_rd=1.00:0.00 / mixed_ref=1 / me_range=32 / chroma_me=1 / trellis=2 / 8x8dct=1 / cqm=0 / deadzone=21,11 / fast_pskip=0 / chroma_qp_offset=-2 / threads=12 / lookahead_threads=3 / sliced_threads=0 / nr=0 / decimate=1 / interlaced=0 / bluray_compat=0 / constrained_intra=0 / bframes=12 / b_pyramid=2 / b_adapt=2 / b_bias=0 / direct=1 / weightb=1 / open_gop=0 / weightp=2 / keyint=240 / keyint_min=24 / scenecut=40 / intra_refresh=0 / rc_lookahead=60 / rc=crf / mbtree=0 / crf=19.0 / qcomp=0.60 / qpmin=0 / qpmax=69 / qpstep=4 / vbv_maxrate=50000 / vbv_bufsize=62500 / crf_max=0.0 / nal_hrd=none / filler=0 / ip_ratio=1.40 / pb_ratio=1.30 / aq=1:1.00
Default                     : Yes
Forced                      : No
Audio
ID                          : 2
Format                      : AC-3
Format/Info                 : Audio Coding 3
Format settings, Endianness : Big
Codec ID                    : A_AC3
Duration                    : 1 h 47 min
Bit rate mode               : Constant
Bit rate                    : 384 kb/s
Channel(s)                  : 6 channels
Channel positions           : Front: L C R, Side: L R, LFE
Sampling rate               : 48.0 kHz
Frame rate                  : 31.250 FPS (1536 SPF)
Bit depth                   : 16 bits
Compression mode            : Lossy
Stream size                 : 294 MiB (20%)
Title                       : iTunes
Language                    : Russian
Service kind                : Complete Main
Default                     : Yes
Forced                      : No

Скриншоты

[Профиль]    [ЛС]
Показать сообщения:    
Ответить на тему

Текущее время: Сегодня 17:49

Часовой пояс: GMT + 7



Вы не можете начинать темы
Вы не можете отвечать на сообщения
Вы не можете редактировать свои сообщения
Вы не можете удалять свои сообщения
Вы не можете голосовать в опросах
Вы не можете прикреплять файлы к сообщениям
Вы не можете скачивать файлы