Нас не догонят / Joueurs / Treat Me Like Fire (Мари Монж / Marie Monge) [2018, Франция, Драма, WEB-DLRip] MVO (iTunes)

Ответить на тему
 
Автор Сообщение

torrentc.info

Создавать темы 08-Ноя-2018 23:04

[Цитировать]

Нас не догонят / Joueurs / Treat Me Like Fire
Страна: Франция
Студия: The Film, Bac Films, Playtime Production, Canal+, Ciné+
Жанр: Драма
Год выхода: 2018
Продолжительность: 01:47:12
Перевод: Профессиональный (многоголосый закадровый) - iTunes
Субтитры: нет
Оригинальная аудиодорожка: нет
Режиссер: Мари Монж / Marie Monge
В ролях: Тахар Рахим, Стэйси Мартин, Брюно Волкович, Карим Леклу, Мари Денарно, Жан-Мишель Коррейя, Анри-Ноэль Табари, Джонатан Кузини, Роман Коссовски, Алассан Траоре, Джамел Барек, Йонас Динал, Николас Ретаби, Мао Молларе, Роми Базиз, Барнабе Кастанье, Летисия Гутиеррез, Серж Бурлон, Рафик Реджен, Николас Леви, Вирджиния Монтель, Милинко Спасойвеч, Лин Фе, Сандрин Гилбо, Себастьян Шаво, Анджело Айбар
Описание: Спонтанный и привлекательный Абель — невероятный любовник и азартный игрок. После внезапной встречи с ним заурядная жизнь Эллы полностью меняется. Вместе они пускаются в манящий подпольный мир казино, где всем правят адреналин и высокие ставки. Их зависимость становится обоюдной, что удваивает шансы и повышает риски. История любви, начавшаяся с простого пари, вскоре превращается в неконтролируемую страсть к игре и друг другу.
Дополнительная информация:
Автор релиза - [img]https://img11.lostpic.net/2018/07/24/6c16c23c27890c...8129c8.gif[/img]
Источник: Torrentc для рипа - WEB-DL (1080p) iTunes RUS - выкуплен мной
Рекламы нет!

Сэмпл: http://multi-up.com/1214309
Качество видео: WEB-DLRip
Формат файла: AVI
Видео: XviD, 720x304 (2,35:1), 1560 kbps, 24.000 fps, 0.124 bit/pixel
Аудио: Русский AC3, 48000 Гц, 6ch, 384 kbps

MediaInfo

ОбщееПолное имя : D:\Joueurs.2018.WEBDLRip-ylnian.aviФормат файла : AVIФормат файла/Информация : Audio Video InterleaveРазмер файла : 1,46 ГбайтПродолжительность : 1 ч. 47 м.Общий поток : 1953 Кбит/секПрограмма кодирования : VirtualDubMod 1.5.10.3 | www.virtualdub-fr.org || (build 2550/release)Библиотека кодирования : VirtualDubMod build 2550/release
ВидеоИдентификатор : 0Формат файла : MPEG-4 VisualПрофиль формата : Advanced Simple@L5Настройки формата : BVOP1 / Custom MatrixПараметр BVOP формата : 1Параметр QPel формата : НетПараметр GMC формата : Без точки переходаПараметр матрицы формата : ВыборочнаяИдентификатор кодека : XVIDИдентификатор кодека/Подсказка : XviDПродолжительность : 1 ч. 47 м.Битрейт : 1560 Кбит/секШирина : 720 пикселейВысота : 304 пикселяСоотношение сторон : 2,35:1Частота кадров : 24,000 кадра/секЦветовое пространство : YUVСубдискретизация насыщенности : 4:2:0Битовая глубина : 8 битТип развёртки : ПрогрессивнаяМетод сжатия : С потерямиБит/(Пиксели*Кадры) : 0.297Размер потока : 1,17 Гбайт (80%)Библиотека кодирования : XviD 67
АудиоИдентификатор : 1Формат файла : AC-3Формат файла/Информация : Audio Coding 3Коммерческое название : Dolby DigitalИдентификатор кодека : 2000Продолжительность : 1 ч. 47 м.Вид битрейта : ПостоянныйБитрейт : 384 Кбит/секКаналы : 6 каналовChannel layout : L R C LFE Ls RsЧастота : 48,0 КГцЧастота кадров : 31,250 кадров/сек (1536 SPF)Битовая глубина : 16 битМетод сжатия : С потерямиРазмер потока : 294 Мбайт (20%)Выравнивание : Разделение по промежуткамПродолжительность промежутка : 42 мс. (1,00 видеокадр)Время предзагрузки промежутка : 500 мс.Заголовок : RUS - MVO - iTunesServiceKind/String : Complete Main

Награды

2 nominations - https://www.imdb.com/title/tt7888070/awards?ref_=tt_awd
Каннский кинофестиваль, 2018 год
Номинации (1):
Золотая камера (награда за режиссерский дебют) (Мари Монж)
[Профиль]    [ЛС]
Показать сообщения:    
Ответить на тему

Текущее время: Сегодня 16:07

Часовой пояс: GMT + 7



Вы не можете начинать темы
Вы не можете отвечать на сообщения
Вы не можете редактировать свои сообщения
Вы не можете удалять свои сообщения
Вы не можете голосовать в опросах
Вы не можете прикреплять файлы к сообщениям
Вы не можете скачивать файлы