Экзотический танец красавицы: Пытки! / Hakkinbon bijin ranbu yori: semeru! (Нобору Танака / Noboru Tanaka) [1977, Япония, Драма, эротика, Pinku eiga, DVDRip] VO (Олег Воротилин)

Ответить на тему
Статистика раздачи [Обновить пиров]
Размер:  753 MB   |    Зарегистрирован:  5 дней   |    Скачан:  1 раз

Полного источника не было: 4 дня

 
   
 
 
 
Автор Сообщение

torrentc.info

Создавать темы 08-Ноя-2018 18:54

[Цитировать]

Экзотический танец красавицы: Пытки! / Hakkinbon bijin ranbu yori: semeru!
Страна: Япония
Жанр: Драма, эротика, Pinku eiga
Год выхода: 1977
Продолжительность: 01:25:00
Перевод: Одноголосый закадровый Олег Воротилин по субтитрам e-ball
Субтитры: нет
Оригинальная аудиодорожка: нет
Режиссер: Нобору Танака / Noboru Tanaka
В ролях: Дзюнко Миясита, Хатсуо Яматани, Хироcи Чо, Сумико Минами, Кёити Мизуки, Аои Накодзима, Иконосуке Койзуми
Описание: Брошенный женой художник, чьи картины представляют воплощённый BDSM, упивается в борделе и знакомится с местной проституткой. Через некоторое время у них завязываются отношения, и вот, мучимый творческими муками, он приступает к пыткам своей новой возлюбленной. Конечно, не всё так просто, как в описании, Нобору Танаке удалась удивительная по красоте и очень медитативная картина с мизерным количеством диалогов, воспевающая "Hapiness in Slavery".
Сэмпл: https://yadi.sk/i/l5Bbl4BNadzG-A
Качество видео: DVDRip
Формат файла: AVI
Видео: 720x320 (2.25:1), 23.976 fps, XviD build 47, 1031 kbps avg, 0.19 bit/pixel
Аудио: 48 kHz, AC-3, 2 ch, 192 kbps avg

MediaInfo

ОбщееПолное имя : E:\Видео\ы\Пытки\Beauty's Exotic Dance_Torture!.aviФормат файла : AVIФормат файла/Информация : Audio Video InterleaveРазмер файла : 753 МбайтПродолжительность : 1 ч. 25 м.Общий поток : 1232 Кбит/секБиблиотека кодирования : VirtualDub build 35491/release
ВидеоИдентификатор : 0Формат файла : MPEG-4 VisualПрофиль формата : Advanced Simple@L5Параметр BVOP формата : 1Параметр QPel формата : НетПараметр GMC формата : Без точки переходаПараметр матрицы формата : ВыборочнаяИдентификатор кодека : XVIDИдентификатор кодека/Подсказка : XviDПродолжительность : 1 ч. 25 м.Битрейт : 1031 Кбит/секШирина : 720 пикселейВысота : 320 пикселейСоотношение сторон : 2,25:1Частота кадров : 23,976 (24000/1001) кадра/секЦветовое пространство : YUVСубдискретизация насыщенности : 4:2:0Битовая глубина : 8 битТип развёртки : ПрогрессивнаяМетод сжатия : С потерямиБит/(Пиксели*Кадры) : 0.187Размер потока : 630 Мбайт (84%)Библиотека кодирования : XviD 1.2.0.dev47 (UTC 2006-11-01)
АудиоИдентификатор : 1Формат файла : AC-3Формат файла/Информация : Audio Coding 3Расширение режима : CM (complete main)Параметр Endianness формата : BigИдентификатор кодека : 2000Продолжительность : 1 ч. 25 м.Вид битрейта : ПостоянныйБитрейт : 192 Кбит/секКаналы : 2 каналаРасположение каналов : Front: L RЧастота : 48,0 КГцЧастота кадров : 31,250 кадров/сек (1536 spf)Битовая глубина : 16 битМетод сжатия : С потерямиРазмер потока : 117 Мбайт (16%)Выравнивание : Соединение по промежуткамПродолжительность промежутка : 42 мс. (1,00 видеокадр)Время предзагрузки промежутка : 512 мс.

Скриншот c названием фильма

Скриншоты







Источник: Torrentc


[torrentc.info]_t_5638186.torrent
Торрент: Зарегистрирован ·  [ 2018-11-08 18:54 ] ·  aea5a4bcddbd23dc52f23f998498a21f8adee4fe

15 KB

Статус: проверено
Скачан: 1 раз
Размер: 753 MB
Оценка: 
(Голосов: 0)
Сказали спасибо: 0  Спасибо
Похожие темы
[Профиль]    [ЛС]
Показать сообщения:    
Ответить на тему

Текущее время: Сегодня 16:31

Часовой пояс: GMT + 7



Вы не можете начинать темы
Вы не можете отвечать на сообщения
Вы не можете редактировать свои сообщения
Вы не можете удалять свои сообщения
Вы не можете голосовать в опросах
Вы не можете прикреплять файлы к сообщениям
Вы можете скачивать файлы