Мальчишник в Европе / Budapest (Ксавье Жанс / Xavier Gens) [2018, Франция, Бельгия, комедия, WEB-DLRip] Dub (iTunes)

Ответить на тему
 
Автор Сообщение

torrentc.info

Создавать темы 07-Ноя-2018 23:23

[Цитировать]

Мальчишник в Европе / Budapest
[img=right]https://i5.imageban.ru/out/2018/11/06/21f49edd677f2...fe16c2.jpg[/img]
Страна: Франция, Бельгия
Жанр: комедия
Год выхода: 2018
Продолжительность: 01:42:19-Перевод: Профессиональный (дублированный) | iTunes
Субтитры: нет
Оригинальная аудиодорожка: нет-Режиссер: Ксавье Жанс / Xavier Gens-В ролях: Маню Пайе (Vincent), Джонатан Коэн (Arnaud), Amélina Limousin, Алис Белаиди (Cécile), Камилль Зорель (Party Girl), Аликс Пуасон (Audrey), Виктор Артус Соларо (Elias), Али Мархьяр (Rémi), Артур Бензакен (Gabor), Антуан Гуи (Tristan), Мари Ковач (Demoiselle d'honneur), Месье Пуп (Georgio)-Описание: Надоела работа? Достали коллеги? Ответ очевиден - бросить все, уехать в Будапешт и начать закатывать вечеринки для холостяков. С покером, обнаженными красотками и катанием на танках. Отрыв по полной!-[img]https://rating.kinopoisk.ru/1066418.gif[/img]-Качество видео: WEB-DLRip
Формат файла: AVI
Видео: 720x320 (2.25:1), 24.000 fps, XviD build 73 ~1644 kbps avg, 0.30 bit/pixel
Аудио: 48 kHz, AC3 Dolby Digital, 3/2 (L,C,R,l,r) + LFE ch, ~384 kbps-

Сэмпл-

MediaInfo

Формат файла                                   : AVI
Формат файла/Информация                        : Audio Video Interleave
Размер файла                             : 1,46 Гбайт
Продолжительность                        : 1 ч. 42 м.
Общий поток                              : 2038 Кбит/сек
Программа кодирования                    : VirtualDubMod 1.5.10.3 | www.virtualdub-fr.org || (build 2550/release)
Библиотека кодирования                   : VirtualDubMod build 2550/release
Видео
Идентификатор                            : 0
Формат файла                                   : MPEG-4 Visual
Профиль формата                          : Advanced Simple@L5
Настройки формата                        : BVOP1 / Custom Matrix
Параметр BVOP формата                    : 1
Параметр QPel формата                    : Нет
Параметр GMC формата                     : Без точки перехода
Параметр матрицы формата                 : Выборочная
Идентификатор кодека                     : XVID
Идентификатор кодека/Подсказка           : XviD
Продолжительность                        : 1 ч. 42 м.
Битрейт                                  : 1645 Кбит/сек
Ширина                                   : 720 пикселей
Высота                                   : 320 пикселей
Соотношение сторон                       : 2,25:1
Частота кадров                           : 24,000 кадра/сек
Цветовое пространство                    : YUV
Субдискретизация насыщенности            : 4:2:0
Битовая глубина                          : 8 бит
Тип развёртки                            : Прогрессивная
Метод сжатия                             : С потерями
Бит/(Пиксели*Кадры)                      : 0.297
Размер потока                            : 1,18 Гбайт (81%)
Библиотека кодирования                   : XviD 73
Аудио
Идентификатор                            : 1
Формат файла                                   : AC-3
Формат файла/Информация                        : Audio Coding 3
Коммерческое название                    : Dolby Digital
Идентификатор кодека                     : 2000
Продолжительность                        : 1 ч. 42 м.
Вид битрейта                             : Постоянный
Битрейт                                  : 384 Кбит/сек
Каналы                                   : 6 каналов
Channel layout                           : L R C LFE Ls Rs
Частота                                  : 48,0 КГц
Частота кадров                           : 31,250 кадров/сек (1536 SPF)
Битовая глубина                          : 16 бит
Метод сжатия                             : С потерями
Размер потока                            : 281 Мбайт (19%)
Выравнивание                             : Разделение по промежуткам
Продолжительность промежутка             : 42  мс. (1,00 видеокадр)
Время предзагрузки промежутка            : 500  мс.
ServiceKind/String                       : Complete Main
[Профиль]    [ЛС]
Показать сообщения:    
Ответить на тему

Текущее время: Сегодня 00:43

Часовой пояс: GMT + 7



Вы не можете начинать темы
Вы не можете отвечать на сообщения
Вы не можете редактировать свои сообщения
Вы не можете удалять свои сообщения
Вы не можете голосовать в опросах
Вы не можете прикреплять файлы к сообщениям
Вы не можете скачивать файлы