(House, Downtempo, Deep House, Electronic) [CD] Gaelle - Transient - 2004, FLAC (tracks+.cue), lossless

Ответить на тему
Статистика раздачи [Обновить пиров]
Размер:  359 MB   |    Зарегистрирован:  1 месяц 11 дней   |    Скачан:  0 раз

Полного источника не было: Никогда

 
   
 
 
 
Автор Сообщение

torrentc.info

Создавать темы 07-Ноя-2018 17:24

[Цитировать]

Gaelle / Transient
Жанр: House, Downtempo, Deep House, Electronic
Носитель: CD
Страна-производитель диска (релиза): USA
Год издания: 2004
Издатель (лейбл): Naked Music Recordings
Номер по каталогу: NMN17
Страна исполнителя (группы): USA
Аудиокодек: FLAC (*.flac)
Тип рипа: tracks+.cue
Битрейт аудио: lossless
Продолжительность: 00:54:21
Источник (релизер): Обмен
Наличие сканов в содержимом раздачи: нет
Треклист:

01. Falling (06:15)
02. Parkway (04:13)
03. Give It Back (04:24)
04. Fade Away (04:00)
05. Haiti (Interlude) (02:35)
06. Love U More (04:03)
07. Repetition (05:28)
08. Shape Shifting (02:14)
09. Transient (04:59)
10. Rain (05:30)
11. Separate Rooms (05:11)
12. Moonsglow (05:29)

Лог создания рипа

Exact Audio Copy V1.0 beta 3 from 29. August 2011
EAC extraction logfile from 16. December 2014, 18:13
Gaelle / Transient
Used drive : ATAPI iHAS124 W Adapter: 1 ID: 0
Read mode : SecureUtilize accurate stream : YesDefeat audio cache : YesMake use of C2 pointers : No
Read offset correction : 48Overread into Lead-In and Lead-Out : NoFill up missing offset samples with silence : YesDelete leading and trailing silent blocks : NoNull samples used in CRC calculations : YesUsed interface : Native Win32 interface for Win NT & 2000Gap handling : Appended to previous track
Used output format : User Defined EncoderSelected bitrate : 1024 kBit/sQuality : HighAdd ID3 tag : NoCommand line compressor : C:\Program Files (x86)\FLAC Frontend\tools\flac.exeAdditional command line options : -8 -V -T "ARTIST=%artist%" -T "TITLE=%title%" -T "ALBUM=%albumtitle%" -T "DATE=%year%" -T "TRACKNUMBER=%tracknr%" %source% -o %dest%
TOC of the extracted CD
Track | Start | Length | Start sector | End sector --------------------------------------------------------- 1 | 0:00.00 | 6:15.20 | 0 | 28144 2 | 6:15.20 | 4:13.45 | 28145 | 47164 3 | 10:28.65 | 4:23.67 | 47165 | 66956 4 | 14:52.57 | 4:00.13 | 66957 | 84969 5 | 18:52.70 | 2:35.02 | 84970 | 96596 6 | 21:27.72 | 4:03.53 | 96597 | 114874 7 | 25:31.50 | 5:28.02 | 114875 | 139476 8 | 30:59.52 | 2:14.15 | 139477 | 149541 9 | 33:13.67 | 4:59.50 | 149542 | 172016 10 | 38:13.42 | 5:30.35 | 172017 | 196801 11 | 43:44.02 | 5:11.58 | 196802 | 220184 12 | 48:55.60 | 5:29.50 | 220185 | 244909
Track 1
Filename H:\#flac rips\01 Gaelle - Falling.wav
Pre-gap length 0:00:02.00
Peak level 100.0 % Extraction speed 4.9 X Track quality 100.0 % Test CRC 799EFFCA Copy CRC 799EFFCA Accurately ripped (confidence 6) [C33F7A15] (AR v2) Copy OK
Track 2
Filename H:\#flac rips\02 Gaelle - Parkway.wav
Peak level 100.0 % Extraction speed 3.8 X Track quality 99.9 % Test CRC 90AB146D Copy CRC 90AB146D Accurately ripped (confidence 6) [43B55EB0] (AR v2) Copy OK
Track 3
Filename H:\#flac rips\03 Gaelle - Give It Back.wav
Peak level 100.0 % Extraction speed 5.8 X Track quality 100.0 % Test CRC 558AC8D5 Copy CRC 558AC8D5 Accurately ripped (confidence 6) [AF9D51FA] (AR v2) Copy OK
Track 4
Filename H:\#flac rips\04 Gaelle - Fade Away.wav
Peak level 100.0 % Extraction speed 6.1 X Track quality 100.0 % Test CRC F4599D0E Copy CRC F4599D0E Accurately ripped (confidence 6) [9F9A0AA0] (AR v2) Copy OK
Track 5
Filename H:\#flac rips\05 Gaelle - Haiti (Interlude).wav
Peak level 100.0 % Extraction speed 3.6 X Track quality 99.9 % Test CRC 79A22574 Copy CRC 79A22574 Accurately ripped (confidence 6) [F5262EB4] (AR v2) Copy OK
Track 6
Filename H:\#flac rips\06 Gaelle - Love U More.wav
Peak level 100.0 % Extraction speed 4.7 X Track quality 99.9 % Test CRC 358805B3 Copy CRC 358805B3 Accurately ripped (confidence 6) [6B5249F6] (AR v2) Copy OK
Track 7
Filename H:\#flac rips\07 Gaelle - Repetition.wav
Pre-gap length 0:00:00.13
Peak level 100.0 % Extraction speed 5.4 X Track quality 99.9 % Test CRC 540BA3E2 Copy CRC 540BA3E2 Accurately ripped (confidence 6) [8BE40902] (AR v2) Copy OK
Track 8
Filename H:\#flac rips\08 Gaelle - Shape Shifting.wav
Peak level 100.0 % Extraction speed 6.6 X Track quality 100.0 % Test CRC A3343C61 Copy CRC A3343C61 Accurately ripped (confidence 6) [9508243D] (AR v2) Copy OK
Track 9
Filename H:\#flac rips\09 Gaelle - Transient.wav
Pre-gap length 0:00:01.09
Peak level 100.0 % Extraction speed 7.7 X Track quality 100.0 % Test CRC 99982F78 Copy CRC 99982F78 Accurately ripped (confidence 6) [2A52C279] (AR v2) Copy OK
Track 10
Filename H:\#flac rips\10 Gaelle - Rain.wav
Peak level 100.0 % Extraction speed 8.2 X Track quality 100.0 % Test CRC 2A588783 Copy CRC 2A588783 Accurately ripped (confidence 6) [ABB0D3AE] (AR v2) Copy OK
Track 11
Filename H:\#flac rips\11 Gaelle - Separate Rooms.wav
Pre-gap length 0:00:00.89
Peak level 100.0 % Extraction speed 6.3 X Track quality 99.9 % Test CRC 97B0A4EF Copy CRC 97B0A4EF Accurately ripped (confidence 6) [F64F1CF5] (AR v2) Copy OK
Track 12
Filename H:\#flac rips\12 Gaelle - Moonsglow.wav
Peak level 100.0 % Extraction speed 6.6 X Track quality 99.9 % Test CRC 2893257A Copy CRC 2893257A Accurately ripped (confidence 6) [1B2A54C1] (AR v2) Copy OK
All tracks accurately ripped
No errors occurred
End of status report
---- CUETools DB Plugin V2.1.5
[CTDB TOCID: C8_712BFzgspwJXhOvmed4Fuyms-] foundSubmit result: C8_712BFzgspwJXhOvmed4Fuyms- has been confirmedTrack | CTDB Status 1 | (3/3) Accurately ripped 2 | (3/3) Accurately ripped 3 | (3/3) Accurately ripped 4 | (3/3) Accurately ripped 5 | (3/3) Accurately ripped 6 | (3/3) Accurately ripped 7 | (3/3) Accurately ripped 8 | (3/3) Accurately ripped 9 | (3/3) Accurately ripped 10 | (3/3) Accurately ripped 11 | (3/3) Accurately ripped 12 | (3/3) Accurately ripped
==== Log checksum F7241C37F6BB6A3A86B8994CF514F5EDB117E413C51F7ACFCEA2653C508C4A31 ====

Содержание индексной карты (.CUE)

REM DATE 2004REM DISCID B90CC10CREM COMMENT "ExactAudioCopy v1.0b3"PERFORMER "Gaelle"TITLE "Transient"FILE "01 Gaelle - Falling.wav" WAVE TRACK 01 AUDIO TITLE "Falling" PERFORMER "Gaelle" INDEX 01 00:00:00FILE "02 Gaelle - Parkway.wav" WAVE TRACK 02 AUDIO TITLE "Parkway" PERFORMER "Gaelle" INDEX 01 00:00:00FILE "03 Gaelle - Give It Back.wav" WAVE TRACK 03 AUDIO TITLE "Give It Back" PERFORMER "Gaelle" INDEX 01 00:00:00FILE "04 Gaelle - Fade Away.wav" WAVE TRACK 04 AUDIO TITLE "Fade Away" PERFORMER "Gaelle" INDEX 01 00:00:00FILE "05 Gaelle - Haiti (Interlude).wav" WAVE TRACK 05 AUDIO TITLE "Haiti (Interlude)" PERFORMER "Gaelle" INDEX 01 00:00:00FILE "06 Gaelle - Love U More.wav" WAVE TRACK 06 AUDIO TITLE "Love U More" PERFORMER "Gaelle" INDEX 01 00:00:00 TRACK 07 AUDIO TITLE "Repetition" PERFORMER "Gaelle" INDEX 00 04:03:43FILE "07 Gaelle - Repetition.wav" WAVE INDEX 01 00:00:00FILE "08 Gaelle - Shape Shifting.wav" WAVE TRACK 08 AUDIO TITLE "Shape Shifting" PERFORMER "Gaelle" INDEX 01 00:00:00 TRACK 09 AUDIO TITLE "Transient" PERFORMER "Gaelle" INDEX 00 02:13:08FILE "09 Gaelle - Transient.wav" WAVE INDEX 01 00:00:00FILE "10 Gaelle - Rain.wav" WAVE TRACK 10 AUDIO TITLE "Rain" PERFORMER "Gaelle" INDEX 01 00:00:00 TRACK 11 AUDIO TITLE "Separate Rooms" PERFORMER "Gaelle" INDEX 00 05:29:43FILE "11 Gaelle - Separate Rooms.wav" WAVE INDEX 01 00:00:00FILE "12 Gaelle - Moonsglow.wav" WAVE TRACK 12 AUDIO TITLE "Moonsglow" PERFORMER "Gaelle" INDEX 01 00:00:00


[torrentc.info]_t_5640627.torrent
Торрент: Зарегистрирован ·  [ 2018-11-07 17:24 ] ·  88b6bd74362bb717690f5b95c841b7d22489a98f

15 KB

Статус: проверено
Скачан: 0 раз
Размер: 359 MB
Оценка: 
(Голосов: 0)
Сказали спасибо: 0  Спасибо
Похожие темы
[Профиль]    [ЛС]
Показать сообщения:    
Ответить на тему

Текущее время: Сегодня 08:24

Часовой пояс: GMT + 7



Вы не можете начинать темы
Вы не можете отвечать на сообщения
Вы не можете редактировать свои сообщения
Вы не можете удалять свои сообщения
Вы не можете голосовать в опросах
Вы не можете прикреплять файлы к сообщениям
Вы можете скачивать файлы