(Electronic, Classical) [CD] Lawrence Casserley - Labyrinths - 1999, FLAC (tracks+.cue), lossless

Ответить на тему
Статистика раздачи [Обновить пиров]
Размер:  272 MB   |    Зарегистрирован:  1 месяц 11 дней   |    Скачан:  0 раз

Полного источника не было: Никогда

 
   
 
 
 
Автор Сообщение

torrentc.info

Создавать темы 07-Ноя-2018 14:12

[Цитировать]

Lawrence Casserley / Labyrinths
Жанр: Electronic, Classical
Носитель: CD
Страна-производитель диска (релиза): UK
Год издания: 1999
Издатель (лейбл): Sargasso ‎
Номер по каталогу: SCD 28030
Аудиокодек: FLAC (*.flac)
Тип рипа: tracks+.cue
Битрейт аудио: lossless
Продолжительность: 01:06:12
Источник (релизер): локальная сеть
Наличие сканов в содержимом раздачи: нет
Треклист:
1 Labyrinth
2 The Garden Of Forking Paths
2a Syllabic Music
2b The Pavilion Of The Limpid Solitude
2c The Labyrinth Of Time
3 The Monk's Prayer
4 Vista Clara

Лог создания рипа

Exact Audio Copy V0.99 prebeta 5 from 4. May 2009
EAC extraction logfile from 1. February 2010, 20:31
Lawrence Casserley / Labyrinths
Used drive : TSSTcorpCDDVDW SH-S203D Adapter: 4 ID: 1
Read mode : SecureUtilize accurate stream : YesDefeat audio cache : YesMake use of C2 pointers : No
Read offset correction : 6Overread into Lead-In and Lead-Out : NoFill up missing offset samples with silence : YesDelete leading and trailing silent blocks : NoNull samples used in CRC calculations : NoUsed interface : Native Win32 interface for Win NT & 2000Gap handling : Appended to previous track
Used output format : User Defined EncoderSelected bitrate : 1024 kBit/sQuality : HighAdd ID3 tag : NoCommand line compressor : C:\Program Files\Exact Audio Copy\FLAC\FLAC.EXEAdditional command line options : -6 -V -T "ARTIST=%a" -T "TITLE=%t" -T "ALBUM=%g" -T "DATE=%y" -T "TRACKNUMBER=%n" -T "GENRE=%m" -T "COMMENT=%e" %s -o %d
TOC of the extracted CD
Track | Start | Length | Start sector | End sector --------------------------------------------------------- 1 | 0:00.00 | 21:22.50 | 0 | 96199 2 | 21:22.50 | 20:42.22 | 96200 | 189371 3 | 42:04.72 | 10:37.38 | 189372 | 237184 4 | 52:42.35 | 13:31.20 | 237185 | 298029
Track 1
Filename C:\EACrips\labyrinth.wav
Pre-gap length 0:00:02.00
Peak level 84.9 % Track quality 100.0 % Test CRC 46AEE203 Copy CRC 46AEE203 Track not present in AccurateRip database Copy OK
Track 2
Filename C:\EACrips\garden of forking paths.wav
Pre-gap length 0:00:01.28
Peak level 72.0 % Track quality 100.0 % Test CRC 31B1C8B8 Copy CRC 31B1C8B8 Track not present in AccurateRip database Copy OK
Track 3
Filename C:\EACrips\monk's prayer.wav
Pre-gap length 0:00:01.27
Suspicious position 0:03:41
Peak level 29.6 % Track quality 99.4 % Test CRC 09A4B90A Copy CRC ABB7F061 Track not present in AccurateRip database Copy finished
Track 4
Filename C:\EACrips\vista clara.wav
Pre-gap length 0:00:01.30
Peak level 90.3 % Track quality 100.0 % Test CRC 4B8439E2 Copy CRC 4B8439E2 Track not present in AccurateRip database Copy OK
None of the tracks are present in the AccurateRip database
There were errors
End of status report

Содержание индексной карты (.CUE)

REM GENRE ElectronicaREM DATE 1999REM DISCID 2E0F8504REM COMMENT "ExactAudioCopy v0.99pb5"FILE "01 Labyrinth.wav" WAVE TRACK 01 AUDIO INDEX 01 00:00:00 TRACK 02 AUDIO INDEX 00 21:21:22FILE "02 Garden of forking paths.wav" WAVE INDEX 01 00:00:00 TRACK 03 AUDIO INDEX 00 20:40:70FILE "03 Monk's prayer.wav" WAVE INDEX 01 00:00:00 TRACK 04 AUDIO INDEX 00 10:36:08FILE "04 Vista clara.wav" WAVE INDEX 01 00:00:00


[torrentc.info]_t_5640380.torrent
Торрент: Зарегистрирован ·  [ 2018-11-07 14:12 ] ·  dc70efe2bac3724039f069859cf7ecd99239a5bb

11 KB

Статус: проверено
Скачан: 0 раз
Размер: 272 MB
Оценка: 
(Голосов: 0)
Сказали спасибо: 0  Спасибо
Похожие темы
[Профиль]    [ЛС]
Показать сообщения:    
Ответить на тему

Текущее время: Сегодня 09:03

Часовой пояс: GMT + 7



Вы не можете начинать темы
Вы не можете отвечать на сообщения
Вы не можете редактировать свои сообщения
Вы не можете удалять свои сообщения
Вы не можете голосовать в опросах
Вы не можете прикреплять файлы к сообщениям
Вы можете скачивать файлы