(House, Latin) [CDM] Papi Sanchez - Enamorame - 2005, FLAC (tracks+.cue), lossless

Ответить на тему
Статистика раздачи [Обновить пиров]
Размер:  185 MB   |    Зарегистрирован:  11 дней   |    Скачан:  0 раз

Полного источника не было: Никогда

 
   
 
 
 
Автор Сообщение

torrentc.info

Создавать темы 07-Ноя-2018 02:16

[Цитировать]

Papi Sanchez / Enamorame
[img=right]https://i5.imageban.ru/out/2018/11/06/8cff535a26bb1...4aeef5.png[/img]
Жанр: House, Latin
Носитель: CDM
Год издания: 2005
Издатель (лейбл): Mach1 Records
Номер по каталогу: 1000025MA1
Аудиокодек: FLAC (*.flac)
Тип рипа: tracks+.cue
Битрейт аудио: lossless
Продолжительность: 20:02
Источник (релизер): свой рип
Наличие сканов в содержимом раздачи: да
Треклист:
01. Papi Sanchez - Enamorame (Radio Mix) (3:38)
02. Papi Sanchez - Enamorame (Reggaeton Mix) (2:50)
03. Papi Sanchez - Enamorame (Aston Martinez Radio Edit) (3:22)
04. Papi Sanchez - Enamorame (Aston Martinez Club Mix) (5:50)
05. Papi Sanchez - Enamorame (Album Mix) (4:22)

Лог создания рипа

Exact Audio Copy V1.3 from 2. September 2016
EAC extraction logfile from 3. June 2018, 10:37
Papi Sanchez / Enamorame
Used drive : ASUS DRW-24B5ST Adapter: 6 ID: 0
Read mode : SecureUtilize accurate stream : YesDefeat audio cache : YesMake use of C2 pointers : No
Read offset correction : 6Overread into Lead-In and Lead-Out : NoFill up missing offset samples with silence : YesDelete leading and trailing silent blocks : NoNull samples used in CRC calculations : YesUsed interface : Installed external ASPI interfaceGap handling : Appended to previous track
Used output format : User Defined EncoderSelected bitrate : 128 kBit/sQuality : HighAdd ID3 tag : NoCommand line compressor : D:\flac-1.3.2-win\win64\flac.exeAdditional command line options : -8 -V -T "ARTIST=%artist%" -T "TITLE=%title%" -T "ALBUM=%albumtitle%" -T "DATE=%year%" -T "TRACKNUMBER=%tracknr%" -T "GENRE=%genre%" -T "COMMENT=ripped by Andy aka yetiisyou" %source%
TOC of the extracted CD
Track | Start | Length | Start sector | End sector --------------------------------------------------------- 1 | 0:00.00 | 3:38.28 | 0 | 16377 2 | 3:38.28 | 2:50.30 | 16378 | 29157 3 | 6:28.58 | 3:22.00 | 29158 | 44307 4 | 9:50.58 | 5:49.40 | 44308 | 70522 5 | 15:40.23 | 4:21.47 | 70523 | 90144
Track 1
Filename E:\Ripped by Andy aka yetiisyou\Papi Sanchez - Enamorame [1000025MA1] [2005]\01. Papi Sanchez - Enamorame (Radio Mix).wav
Pre-gap length 0:00:02.00
Peak level 100.0 % Extraction speed 1.9 X Track quality 100.0 % Test CRC AEEBF66A Copy CRC AEEBF66A Track not present in AccurateRip database Copy OK
Track 2
Filename E:\Ripped by Andy aka yetiisyou\Papi Sanchez - Enamorame [1000025MA1] [2005]\02. Papi Sanchez - Enamorame (Reggaeton Mix).wav
Pre-gap length 0:00:02.00
Peak level 94.6 % Extraction speed 1.9 X Track quality 100.0 % Test CRC DA43DDCA Copy CRC DA43DDCA Track not present in AccurateRip database Copy OK
Track 3
Filename E:\Ripped by Andy aka yetiisyou\Papi Sanchez - Enamorame [1000025MA1] [2005]\03. Papi Sanchez - Enamorame (Aston Martinez Radio Edit).wav
Pre-gap length 0:00:02.00
Peak level 97.7 % Extraction speed 2.1 X Track quality 100.0 % Test CRC E7585742 Copy CRC E7585742 Track not present in AccurateRip database Copy OK
Track 4
Filename E:\Ripped by Andy aka yetiisyou\Papi Sanchez - Enamorame [1000025MA1] [2005]\04. Papi Sanchez - Enamorame (Aston Martinez Club Mix).wav
Pre-gap length 0:00:02.00
Peak level 97.7 % Extraction speed 2.5 X Track quality 100.0 % Test CRC E2295705 Copy CRC E2295705 Track not present in AccurateRip database Copy OK
Track 5
Filename E:\Ripped by Andy aka yetiisyou\Papi Sanchez - Enamorame [1000025MA1] [2005]\05. Papi Sanchez - Enamorame (Album Mix).wav
Pre-gap length 0:00:02.00
Peak level 91.2 % Extraction speed 2.0 X Track quality 99.9 % Test CRC 1BC92AE4 Copy CRC 1BC92AE4 Track not present in AccurateRip database Copy OK
None of the tracks are present in the AccurateRip database
No errors occurred
End of status report
---- CUETools DB Plugin V2.1.6
[CTDB TOCID: 44q8pgpaQTyTnNoqhR9INy5lTMw-] disk not present in databaseSubmit result: 44q8pgpaQTyTnNoqhR9INy5lTMw- has been uploaded
==== Log checksum 0E83933611BAB5E4DD7DA53CEAA83780A6FA91AEA542B61F070E5B1B18094A01 ====

Содержание индексной карты (.CUE)

REM DATE 2003REM DISCID 3104B105REM COMMENT "ExactAudioCopy v1.3"PERFORMER "Papi Sanchez"TITLE "Enamorame"REM COMPOSER ""FILE "01. Papi Sanchez - Enamorame (Radio Mix).wav" WAVE TRACK 01 AUDIO TITLE "Enamorame (Radio Mix)" PERFORMER "Papi Sanchez" REM COMPOSER "" ISRC ITF250400054 FLAGS DCP INDEX 01 00:00:00 TRACK 02 AUDIO TITLE "Enamorame (Reggaeton Mix)" PERFORMER "Papi Sanchez" REM COMPOSER "" ISRC DES310500170 FLAGS DCP INDEX 00 03:36:28FILE "02. Papi Sanchez - Enamorame (Reggaeton Mix).wav" WAVE INDEX 01 00:00:00 TRACK 03 AUDIO TITLE "Enamorame (Aston Martinez Radio Edit)" PERFORMER "Papi Sanchez" REM COMPOSER "" ISRC DES310500132 FLAGS DCP INDEX 00 02:48:30FILE "03. Papi Sanchez - Enamorame (Aston Martinez Radio Edit).wav" WAVE INDEX 01 00:00:00 TRACK 04 AUDIO TITLE "Enamorame (Aston Martinez Club Mix)" PERFORMER "Papi Sanchez" REM COMPOSER "" ISRC DES310500117 FLAGS DCP INDEX 00 03:20:00FILE "04. Papi Sanchez - Enamorame (Aston Martinez Club Mix).wav" WAVE INDEX 01 00:00:00 TRACK 05 AUDIO TITLE "Enamorame (Album Mix)" PERFORMER "Papi Sanchez" REM COMPOSER "" ISRC ITF250400058 FLAGS DCP INDEX 00 05:47:40FILE "05. Papi Sanchez - Enamorame (Album Mix).wav" WAVE INDEX 01 00:00:00


[torrentc.info]_t_5640511.torrent
Торрент: Зарегистрирован ·  [ 2018-11-07 02:15 ] ·  2a76ca0abd9e7529dbfd90535221a94af1636dca

16 KB

Статус: проверено
Скачан: 0 раз
Размер: 185 MB
Оценка: 
(Голосов: 0)
Сказали спасибо: 0  Спасибо
Похожие темы
[Профиль]    [ЛС]
Показать сообщения:    
Ответить на тему

Текущее время: Сегодня 10:49

Часовой пояс: GMT + 7



Вы не можете начинать темы
Вы не можете отвечать на сообщения
Вы не можете редактировать свои сообщения
Вы не можете удалять свои сообщения
Вы не можете голосовать в опросах
Вы не можете прикреплять файлы к сообщениям
Вы можете скачивать файлы