[BR][OF] Rush - 2112 (Limited edition) - 1976/2012 (Hard Rock, Prog Rock)

Ответить на тему
Статистика раздачи [Обновить пиров]
Размер:  11.66 GB   |    Зарегистрирован:  1 месяц 12 дней   |    Скачан:  0 раз

Полного источника не было: Никогда

 
   
 
 
 
Автор Сообщение

torrentc.info

Создавать темы 07-Ноя-2018 02:16

[Цитировать]

--Формат файла записи/Источник записи: [BR][OF]
Наличие водяных знаков: Нет
Издание: Deluxe edition
Год издания/переиздания диска: 1976/2012
Жанр: Hard Rock, Prog Rock
Издатель (лейбл): Anthem Records
Продолжительность: 00:39:00
Наличие сканов в содержимом раздачи: Нет-Треклист:
1 2112
i. Overture
ii. The Temples of Syrinx
iii. Discovery
iv. Presentation
v. Oracle: The Dream
vi. Soliloquy
vii. Grand Finale
2 A Passage to Bangkok
3 The Twilight Zone
4 Lessons
5 Tears
6 Something for Nothing
Extras
- Cómic Digital
- Gallery of Photos
- Notes
- lyrics
Формат файла: BDMV
Тип рипа: folder
Разрядность: 24/96
Формат файла: LPCM
Количество каналов: 2.0
Другие аудио
DTS-HD Master Audio - 24/96, 5.1, 7963 kbps (DTS Core: 6.1 / 48 kHz / 1509 kbps / 24-bit)
LPCM Audio - 24/96, 2.0, 13824 kbps

BD Info Report

Disc Title: Rush - 2112 (BD)Disc Size: 12 522 209 266 bytesProtection: AACSBD-Java: YesBDInfo: 0.5.8
Notes:
BDINFO HOME: Cinema Squid http://www.cinemasquid.com/blu-ray/tools/bdinfo
INCLUDES FORUMS REPORT FOR: AVS Forum Blu-ray Audio and Video Specifications Thread http://www.avsforum.com/avs-vb/showthread.php?t=1155731
********************PLAYLIST: 00003.MPLS********************
Total   Video
Title                                                           Codec   Length  Movie Size      Disc Size       Bitrate Bitrate Main Audio Track                          Secondary Audio Track
-----                                                           ------  ------- --------------  --------------  ------- ------- ------------------                        ---------------------
00003.MPLS                                                      AVC     0:39:00 11 455 039 488  12 522 209 266  39,16   10,41   LPCM 2.0 4608Kbps (96kHz/24-bit)          DTS-HD Master 5.1 7963Kbps (96kHz/24-bit)
DISC INFO:
Disc Title:     Rush - 2112 (BD)
Disc Size:      12 522 209 266 bytes
Protection:     AACS
BD-Java:        Yes
BDInfo:         0.5.8
PLAYLIST REPORT:
Name:                   00003.MPLS
Length:                 0:39:00.129 (h:m:s.ms)
Size:                   11 455 039 488 bytes
Total Bitrate:          39,16 Mbps
VIDEO:
Codec                   Bitrate             Description
-----                   -------             -----------
MPEG-4 AVC Video        10409 kbps          1080p / 23,976 fps / 16:9 / High Profile 4.1
AUDIO:
Codec                           Language        Bitrate         Description
-----                           --------        -------         -----------
LPCM Audio                      English         4608 kbps       2.0 / 96 kHz / 4608 kbps / 24-bit
DTS-HD Master Audio             English         7963 kbps       5.1 / 96 kHz / 7963 kbps / 24-bit (DTS Core: 6.1 / 48 kHz / 1509 kbps / 24-bit)
LPCM Audio                      English         13824 kbps      5.1 / 96 kHz / 13824 kbps / 24-bit
FILES:
Name            Time In         Length          Size            Total Bitrate
----            -------         ------          ----            -------------
00003.M2TS      0:00:00.000     0:39:00.129     11 455 039 488  39 160
CHAPTERS:
Number          Time In         Length          Avg Video Rate  Max 1-Sec Rate  Max 1-Sec Time  Max 5-Sec Rate  Max 5-Sec Time  Max 10Sec Rate  Max 10Sec Time  Avg Frame Size  Max Frame Size  Max Frame Time
------          -------         ------          --------------  --------------  --------------  --------------  --------------  --------------  --------------  --------------  --------------  --------------
1               0:00:00.000     0:39:00.129     10 409 kbps     28 539 kbps     00:18:53.715    17 135 kbps     00:18:49.711    16 332 kbps     00:22:51.953    54 271 bytes    780 809 bytes   00:15:00.357
STREAM DIAGNOSTICS:
File            PID             Type            Codec           Language                Seconds                 Bitrate                 Bytes           Packets
----            ---             ----            -----           --------                --------------          --------------          -------------   -----
00003.M2TS      4113 (0x1011)   0x1B            AVC                                     2340,046                10 410                  3 044 917 774   16 581 030
00003.M2TS      4352 (0x1100)   0x80            LPCM            eng (English)           2340,046                4 614                   1 349 547 612   7 487 088
00003.M2TS      4353 (0x1101)   0x86            DTS-HD MA       eng (English)           2340,046                7 963                   2 329 313 596   13 024 289
00003.M2TS      4354 (0x1102)   0x80            LPCM            eng (English)           2340,046                13 831                  4 045 616 560   22 465 247
QUICK SUMMARY:
Disc Title: Rush - 2112 (BD)Disc Size: 12 522 209 266 bytesProtection: AACSBD-Java: YesPlaylist: 00003.MPLSSize: 11 455 039 488 bytesLength: 0:39:00.129Total Bitrate: 39,16 MbpsVideo: MPEG-4 AVC Video / 10409 kbps / 1080p / 23,976 fps / 16:9 / High Profile 4.1Audio: English / LPCM Audio / 2.0 / 96 kHz / 4608 kbps / 24-bitAudio: English / DTS-HD Master Audio / 5.1 / 96 kHz / 7963 kbps / 24-bit (DTS Core: 6.1 / 48 kHz / 1509 kbps / 24-bit)Audio: English / LPCM Audio / 5.1 / 96 kHz / 13824 kbps / 24-bit
********************PLAYLIST: 01003.MPLS********************
Total   Video
Title                                                           Codec   Length  Movie Size      Disc Size       Bitrate Bitrate Main Audio Track                          Secondary Audio Track
-----                                                           ------  ------- --------------  --------------  ------- ------- ------------------                        ---------------------
01003.MPLS                                                      AVC     0:39:00 11 455 039 488  12 522 209 266  39,16   10,41   LPCM 2.0 4608Kbps (96kHz/24-bit)          DTS-HD Master 5.1 7963Kbps (96kHz/24-bit)
DISC INFO:
Disc Title:     Rush - 2112 (BD)
Disc Size:      12 522 209 266 bytes
Protection:     AACS
BD-Java:        Yes
BDInfo:         0.5.8
PLAYLIST REPORT:
Name:                   01003.MPLS
Length:                 0:39:00.129 (h:m:s.ms)
Size:                   11 455 039 488 bytes
Total Bitrate:          39,16 Mbps
VIDEO:
Codec                   Bitrate             Description
-----                   -------             -----------
MPEG-4 AVC Video        10409 kbps          1080p / 23,976 fps / 16:9 / High Profile 4.1
AUDIO:
Codec                           Language        Bitrate         Description
-----                           --------        -------         -----------
LPCM Audio                      English         4608 kbps       2.0 / 96 kHz / 4608 kbps / 24-bit
DTS-HD Master Audio             English         7963 kbps       5.1 / 96 kHz / 7963 kbps / 24-bit (DTS Core: 6.1 / 48 kHz / 1509 kbps / 24-bit)
LPCM Audio                      English         13824 kbps      5.1 / 96 kHz / 13824 kbps / 24-bit
FILES:
Name            Time In         Length          Size            Total Bitrate
----            -------         ------          ----            -------------
00003.M2TS      0:00:00.000     0:39:00.129     11 455 039 488  39 160
CHAPTERS:
Number          Time In         Length          Avg Video Rate  Max 1-Sec Rate  Max 1-Sec Time  Max 5-Sec Rate  Max 5-Sec Time  Max 10Sec Rate  Max 10Sec Time  Avg Frame Size  Max Frame Size  Max Frame Time
------          -------         ------          --------------  --------------  --------------  --------------  --------------  --------------  --------------  --------------  --------------  --------------
1               0:00:00.000     0:20:35.442     11 197 kbps     28 539 kbps     00:18:53.715    17 135 kbps     00:18:49.711    15 780 kbps     00:15:42.524    58 375 bytes    780 809 bytes   00:15:00.357
2               0:20:35.442     0:03:34.505     11 735 kbps     24 867 kbps     00:22:02.529    16 894 kbps     00:23:45.924    16 332 kbps     00:22:51.953    61 179 bytes    759 876 bytes   00:20:57.881
3               0:24:09.948     0:03:20.116     11 449 kbps     18 574 kbps     00:26:27.919    16 162 kbps     00:25:05.629    15 843 kbps     00:25:02.334    59 688 bytes    333 520 bytes   00:26:15.490
4               0:27:30.065     0:03:51.731     11 097 kbps     23 870 kbps     00:28:54.858    16 666 kbps     00:29:46.785    16 161 kbps     00:29:28.433    57 854 bytes    558 154 bytes   00:29:45.116
5               0:31:21.796     0:03:31.878     6 297 kbps      25 113 kbps     00:32:18.478    16 523 kbps     00:31:35.184    15 982 kbps     00:31:35.184    32 829 bytes    769 334 bytes   00:31:54.370
6               0:34:53.674     0:04:01.574     7 500 kbps      17 708 kbps     00:35:03.893    16 503 kbps     00:35:03.643    16 210 kbps     00:35:03.267    39 104 bytes    459 994 bytes   00:37:55.648
7               0:38:55.249     0:00:04.879     34 kbps         38 kbps         00:38:56.542    0 kbps          00:00:00.000    0 kbps          00:00:00.000    178 bytes       844 bytes       00:38:57.418
STREAM DIAGNOSTICS:
File            PID             Type            Codec           Language                Seconds                 Bitrate                 Bytes           Packets
----            ---             ----            -----           --------                --------------          --------------          -------------   -----
00003.M2TS      4113 (0x1011)   0x1B            AVC                                     2340,046                10 410                  3 044 917 774   16 581 030
00003.M2TS      4352 (0x1100)   0x80            LPCM            eng (English)           2340,046                4 614                   1 349 547 612   7 487 088
00003.M2TS      4353 (0x1101)   0x86            DTS-HD MA       eng (English)           2340,046                7 963                   2 329 313 596   13 024 289
00003.M2TS      4354 (0x1102)   0x80            LPCM            eng (English)           2340,046                13 831                  4 045 616 560   22 465 247
QUICK SUMMARY:
Disc Title: Rush - 2112 (BD)Disc Size: 12 522 209 266 bytesProtection: AACSBD-Java: YesPlaylist: 01003.MPLSSize: 11 455 039 488 bytesLength: 0:39:00.129Total Bitrate: 39,16 MbpsVideo: MPEG-4 AVC Video / 10409 kbps / 1080p / 23,976 fps / 16:9 / High Profile 4.1Audio: English / LPCM Audio / 2.0 / 96 kHz / 4608 kbps / 24-bitAudio: English / DTS-HD Master Audio / 5.1 / 96 kHz / 7963 kbps / 24-bit (DTS Core: 6.1 / 48 kHz / 1509 kbps / 24-bit)Audio: English / LPCM Audio / 5.1 / 96 kHz / 13824 kbps / 24-bit
********************PLAYLIST: 00002.MPLS********************
Total   Video
Title                                                           Codec   Length  Movie Size      Disc Size       Bitrate Bitrate Main Audio Track                          Secondary Audio Track
-----                                                           ------  ------- --------------  --------------  ------- ------- ------------------                        ---------------------
00002.MPLS                                                      AVC     0:02:00 263 663 616     12 522 209 266  17,57   16,51   LPCM 2.0 4608Kbps (96kHz/24-bit)          LPCM 2.0 4608Kbps (96kHz/24-bit)
DISC INFO:
Disc Title:     Rush - 2112 (BD)
Disc Size:      12 522 209 266 bytes
Protection:     AACS
BD-Java:        Yes
BDInfo:         0.5.8
PLAYLIST REPORT:
Name:                   00002.MPLS
Length:                 0:02:00.078 (h:m:s.ms)
Size:                   263 663 616 bytes
Total Bitrate:          17,57 Mbps
VIDEO:
Codec                   Bitrate             Description
-----                   -------             -----------
MPEG-4 AVC Video        16512 kbps          1080p / 23,976 fps / 16:9 / High Profile 4.1
AUDIO:
Codec                           Language        Bitrate         Description
-----                           --------        -------         -----------
LPCM Audio                      English         4608 kbps       2.0 / 96 kHz / 4608 kbps / 24-bit
LPCM Audio                      English         4608 kbps       2.0 / 96 kHz / 4608 kbps / 24-bit
LPCM Audio                      English         4608 kbps       2.0 / 96 kHz / 4608 kbps / 24-bit
FILES:
Name            Time In         Length          Size            Total Bitrate
----            -------         ------          ----            -------------
00002.M2TS      0:00:00.000     0:02:00.078     263 663 616     17 566
CHAPTERS:
Number          Time In         Length          Avg Video Rate  Max 1-Sec Rate  Max 1-Sec Time  Max 5-Sec Rate  Max 5-Sec Time  Max 10Sec Rate  Max 10Sec Time  Avg Frame Size  Max Frame Size  Max Frame Time
------          -------         ------          --------------  --------------  --------------  --------------  --------------  --------------  --------------  --------------  --------------  --------------
1               0:00:00.000     0:02:00.078     16 512 kbps     28 862 kbps     00:00:00.583    19 468 kbps     00:00:00.667    17 442 kbps     00:00:00.500    86 116 bytes    301 885 bytes   00:00:27.402
STREAM DIAGNOSTICS:
File            PID             Type            Codec           Language                Seconds                 Bitrate                 Bytes           Packets
----            ---             ----            -----           --------                --------------          --------------          -------------   -----
00002.M2TS      4113 (0x1011)   0x1B            AVC                                     119,995                 16 523                  247 841 527     1 348 658
00002.M2TS      4352 (0x1100)   0x80            LPCM            eng (English)           119,995                 77                      1 156 484       6 416
00002.M2TS      4353 (0x1101)   0x80            LPCM            eng (English)           119,995                 77                      1 156 484       6 416
00002.M2TS      4354 (0x1102)   0x80            LPCM            eng (English)           119,995                 77                      1 156 484       6 416
QUICK SUMMARY:
Disc Title: Rush - 2112 (BD)Disc Size: 12 522 209 266 bytesProtection: AACSBD-Java: YesPlaylist: 00002.MPLSSize: 263 663 616 bytesLength: 0:02:00.078Total Bitrate: 17,57 MbpsVideo: MPEG-4 AVC Video / 16512 kbps / 1080p / 23,976 fps / 16:9 / High Profile 4.1Audio: English / LPCM Audio / 2.0 / 96 kHz / 4608 kbps / 24-bitAudio: English / LPCM Audio / 2.0 / 96 kHz / 4608 kbps / 24-bitAudio: English / LPCM Audio / 2.0 / 96 kHz / 4608 kbps / 24-bit
********************PLAYLIST: 01002.MPLS********************
Total   Video
Title                                                           Codec   Length  Movie Size      Disc Size       Bitrate Bitrate Main Audio Track                          Secondary Audio Track
-----                                                           ------  ------- --------------  --------------  ------- ------- ------------------                        ---------------------
01002.MPLS                                                      AVC     0:02:00 263 663 616     12 522 209 266  17,57   16,51   LPCM 2.0 4608Kbps (96kHz/24-bit)          LPCM 2.0 4608Kbps (96kHz/24-bit)
DISC INFO:
Disc Title:     Rush - 2112 (BD)
Disc Size:      12 522 209 266 bytes
Protection:     AACS
BD-Java:        Yes
BDInfo:         0.5.8
PLAYLIST REPORT:
Name:                   01002.MPLS
Length:                 0:02:00.078 (h:m:s.ms)
Size:                   263 663 616 bytes
Total Bitrate:          17,57 Mbps
VIDEO:
Codec                   Bitrate             Description
-----                   -------             -----------
MPEG-4 AVC Video        16512 kbps          1080p / 23,976 fps / 16:9 / High Profile 4.1
AUDIO:
Codec                           Language        Bitrate         Description
-----                           --------        -------         -----------
LPCM Audio                      English         4608 kbps       2.0 / 96 kHz / 4608 kbps / 24-bit
LPCM Audio                      English         4608 kbps       2.0 / 96 kHz / 4608 kbps / 24-bit
LPCM Audio                      English         4608 kbps       2.0 / 96 kHz / 4608 kbps / 24-bit
FILES:
Name            Time In         Length          Size            Total Bitrate
----            -------         ------          ----            -------------
00002.M2TS      0:00:00.000     0:02:00.078     263 663 616     17 566
CHAPTERS:
Number          Time In         Length          Avg Video Rate  Max 1-Sec Rate  Max 1-Sec Time  Max 5-Sec Rate  Max 5-Sec Time  Max 10Sec Rate  Max 10Sec Time  Avg Frame Size  Max Frame Size  Max Frame Time
------          -------         ------          --------------  --------------  --------------  --------------  --------------  --------------  --------------  --------------  --------------  --------------
1               0:00:00.000     0:02:00.078     16 512 kbps     28 862 kbps     00:00:00.583    19 468 kbps     00:00:00.667    17 442 kbps     00:00:00.500    86 116 bytes    301 885 bytes   00:00:27.402
STREAM DIAGNOSTICS:
File            PID             Type            Codec           Language                Seconds                 Bitrate                 Bytes           Packets
----            ---             ----            -----           --------                --------------          --------------          -------------   -----
00002.M2TS      4113 (0x1011)   0x1B            AVC                                     119,995                 16 523                  247 841 527     1 348 658
00002.M2TS      4352 (0x1100)   0x80            LPCM            eng (English)           119,995                 77                      1 156 484       6 416
00002.M2TS      4353 (0x1101)   0x80            LPCM            eng (English)           119,995                 77                      1 156 484       6 416
00002.M2TS      4354 (0x1102)   0x80            LPCM            eng (English)           119,995                 77                      1 156 484       6 416
QUICK SUMMARY:
Disc Title: Rush - 2112 (BD)Disc Size: 12 522 209 266 bytesProtection: AACSBD-Java: YesPlaylist: 01002.MPLSSize: 263 663 616 bytesLength: 0:02:00.078Total Bitrate: 17,57 MbpsVideo: MPEG-4 AVC Video / 16512 kbps / 1080p / 23,976 fps / 16:9 / High Profile 4.1Audio: English / LPCM Audio / 2.0 / 96 kHz / 4608 kbps / 24-bitAudio: English / LPCM Audio / 2.0 / 96 kHz / 4608 kbps / 24-bitAudio: English / LPCM Audio / 2.0 / 96 kHz / 4608 kbps / 24-bit
********************PLAYLIST: 00001.MPLS********************
Total   Video
Title                                                           Codec   Length  Movie Size      Disc Size       Bitrate Bitrate Main Audio Track                          Secondary Audio Track
-----                                                           ------  ------- --------------  --------------  ------- ------- ------------------                        ---------------------
00001.MPLS                                                      AVC     0:01:33 476 356 608     12 522 209 266  40,88   12,46   LPCM 2.0 4608Kbps (96kHz/24-bit)          DTS-HD Master 5.1 7596Kbps (96kHz/24-bit)
DISC INFO:
Disc Title:     Rush - 2112 (BD)
Disc Size:      12 522 209 266 bytes
Protection:     AACS
BD-Java:        Yes
BDInfo:         0.5.8
PLAYLIST REPORT:
Name:                   00001.MPLS
Length:                 0:01:33.218 (h:m:s.ms)
Size:                   476 356 608 bytes
Total Bitrate:          40,88 Mbps
VIDEO:
Codec                   Bitrate             Description
-----                   -------             -----------
MPEG-4 AVC Video        12461 kbps          1080p / 23,976 fps / 16:9 / High Profile 4.1
AUDIO:
Codec                           Language        Bitrate         Description
-----                           --------        -------         -----------
LPCM Audio                      English         4608 kbps       2.0 / 96 kHz / 4608 kbps / 24-bit
DTS-HD Master Audio             English         7596 kbps       5.1 / 96 kHz / 7596 kbps / 24-bit (DTS Core: 6.1 / 48 kHz / 1509 kbps / 24-bit)
LPCM Audio                      English         13824 kbps      5.1 / 96 kHz / 13824 kbps / 24-bit
FILES:
Name            Time In         Length          Size            Total Bitrate
----            -------         ------          ----            -------------
00001.M2TS      0:00:00.000     0:01:33.218     476 356 608     40 881
CHAPTERS:
Number          Time In         Length          Avg Video Rate  Max 1-Sec Rate  Max 1-Sec Time  Max 5-Sec Rate  Max 5-Sec Time  Max 10Sec Rate  Max 10Sec Time  Avg Frame Size  Max Frame Size  Max Frame Time
------          -------         ------          --------------  --------------  --------------  --------------  --------------  --------------  --------------  --------------  --------------  --------------
1               0:00:00.000     0:01:33.218     12 461 kbps     20 152 kbps     00:00:02.544    16 383 kbps     00:00:02.544    14 706 kbps     00:00:02.460    64 995 bytes    225 008 bytes   00:00:56.931
STREAM DIAGNOSTICS:
File            PID             Type            Codec           Language                Seconds                 Bitrate                 Bytes           Packets
----            ---             ----            -----           --------                --------------          --------------          -------------   -----
00001.M2TS      4113 (0x1011)   0x1B            AVC                                     93,135                  12 472                  145 199 366     790 408
00001.M2TS      4352 (0x1100)   0x80            LPCM            eng (English)           93,135                  4 600                   53 552 996      297 104
00001.M2TS      4353 (0x1101)   0x86            DTS-HD MA       eng (English)           93,135                  7 603                   88 511 336      495 615
00001.M2TS      4354 (0x1102)   0x80            LPCM            eng (English)           93,135                  13 825                  160 942 636     893 712
QUICK SUMMARY:
Disc Title: Rush - 2112 (BD)Disc Size: 12 522 209 266 bytesProtection: AACSBD-Java: YesPlaylist: 00001.MPLSSize: 476 356 608 bytesLength: 0:01:33.218Total Bitrate: 40,88 MbpsVideo: MPEG-4 AVC Video / 12461 kbps / 1080p / 23,976 fps / 16:9 / High Profile 4.1Audio: English / LPCM Audio / 2.0 / 96 kHz / 4608 kbps / 24-bitAudio: English / DTS-HD Master Audio / 5.1 / 96 kHz / 7596 kbps / 24-bit (DTS Core: 6.1 / 48 kHz / 1509 kbps / 24-bit)Audio: English / LPCM Audio / 5.1 / 96 kHz / 13824 kbps / 24-bit
********************PLAYLIST: 01001.MPLS********************
Total   Video
Title                                                           Codec   Length  Movie Size      Disc Size       Bitrate Bitrate Main Audio Track                          Secondary Audio Track
-----                                                           ------  ------- --------------  --------------  ------- ------- ------------------                        ---------------------
01001.MPLS                                                      AVC     0:01:33 476 356 608     12 522 209 266  40,88   12,46   LPCM 2.0 4608Kbps (96kHz/24-bit)          DTS-HD Master 5.1 7596Kbps (96kHz/24-bit)
DISC INFO:
Disc Title:     Rush - 2112 (BD)
Disc Size:      12 522 209 266 bytes
Protection:     AACS
BD-Java:        Yes
BDInfo:         0.5.8
PLAYLIST REPORT:
Name:                   01001.MPLS
Length:                 0:01:33.218 (h:m:s.ms)
Size:                   476 356 608 bytes
Total Bitrate:          40,88 Mbps
VIDEO:
Codec                   Bitrate             Description
-----                   -------             -----------
MPEG-4 AVC Video        12461 kbps          1080p / 23,976 fps / 16:9 / High Profile 4.1
AUDIO:
Codec                           Language        Bitrate         Description
-----                           --------        -------         -----------
LPCM Audio                      English         4608 kbps       2.0 / 96 kHz / 4608 kbps / 24-bit
DTS-HD Master Audio             English         7596 kbps       5.1 / 96 kHz / 7596 kbps / 24-bit (DTS Core: 6.1 / 48 kHz / 1509 kbps / 24-bit)
LPCM Audio                      English         13824 kbps      5.1 / 96 kHz / 13824 kbps / 24-bit
FILES:
Name            Time In         Length          Size            Total Bitrate
----            -------         ------          ----            -------------
00001.M2TS      0:00:00.000     0:01:33.218     476 356 608     40 881
CHAPTERS:
Number          Time In         Length          Avg Video Rate  Max 1-Sec Rate  Max 1-Sec Time  Max 5-Sec Rate  Max 5-Sec Time  Max 10Sec Rate  Max 10Sec Time  Avg Frame Size  Max Frame Size  Max Frame Time
------          -------         ------          --------------  --------------  --------------  --------------  --------------  --------------  --------------  --------------  --------------  --------------
1               0:00:00.000     0:00:06.006     9 548 kbps      20 152 kbps     00:00:02.544    11 448 kbps     00:00:01.001    0 kbps          00:00:00.000    49 434 bytes    212 645 bytes   00:00:03.545
2               0:00:06.006     0:01:24.000     12 890 kbps     17 960 kbps     00:00:06.047    14 053 kbps     00:00:06.047    13 948 kbps     00:00:06.006    67 204 bytes    225 008 bytes   00:00:56.931
3               0:01:30.006     0:00:03.211     6 681 kbps      15 403 kbps     00:01:30.423    0 kbps          00:00:00.000    0 kbps          00:00:00.000    35 760 bytes    200 457 bytes   00:01:30.298
STREAM DIAGNOSTICS:
File            PID             Type            Codec           Language                Seconds                 Bitrate                 Bytes           Packets
----            ---             ----            -----           --------                --------------          --------------          -------------   -----
00001.M2TS      4113 (0x1011)   0x1B            AVC                                     93,135                  12 472                  145 199 366     790 408
00001.M2TS      4352 (0x1100)   0x80            LPCM            eng (English)           93,135                  4 600                   53 552 996      297 104
00001.M2TS      4353 (0x1101)   0x86            DTS-HD MA       eng (English)           93,135                  7 603                   88 511 336      495 615
00001.M2TS      4354 (0x1102)   0x80            LPCM            eng (English)           93,135                  13 825                  160 942 636     893 712
QUICK SUMMARY:
Disc Title: Rush - 2112 (BD)Disc Size: 12 522 209 266 bytesProtection: AACSBD-Java: YesPlaylist: 01001.MPLSSize: 476 356 608 bytesLength: 0:01:33.218Total Bitrate: 40,88 MbpsVideo: MPEG-4 AVC Video / 12461 kbps / 1080p / 23,976 fps / 16:9 / High Profile 4.1Audio: English / LPCM Audio / 2.0 / 96 kHz / 4608 kbps / 24-bitAudio: English / DTS-HD Master Audio / 5.1 / 96 kHz / 7596 kbps / 24-bit (DTS Core: 6.1 / 48 kHz / 1509 kbps / 24-bit)Audio: English / LPCM Audio / 5.1 / 96 kHz / 13824 kbps / 24-bit
********************PLAYLIST: 00006.MPLS********************
Total   Video
Title                                                           Codec   Length  Movie Size      Disc Size       Bitrate Bitrate Main Audio Track                          Secondary Audio Track
-----                                                           ------  ------- --------------  --------------  ------- ------- ------------------                        ---------------------
00006.MPLS                                                      AVC     0:01:12 133 675 008     12 522 209 266  14,84   14,13
DISC INFO:
Disc Title:     Rush - 2112 (BD)
Disc Size:      12 522 209 266 bytes
Protection:     AACS
BD-Java:        Yes
BDInfo:         0.5.8
PLAYLIST REPORT:
Name:                   00006.MPLS
Length:                 0:01:12.072 (h:m:s.ms)
Size:                   133 675 008 bytes
Total Bitrate:          14,84 Mbps
VIDEO:
Codec                   Bitrate             Description
-----                   -------             -----------
MPEG-4 AVC Video        14133 kbps          1080p / 23,976 fps / 16:9 / High Profile 4.1
FILES:
Name            Time In         Length          Size            Total Bitrate
----            -------         ------          ----            -------------
00006.M2TS      0:00:00.000     0:01:12.072     133 675 008     14 838
CHAPTERS:
Number          Time In         Length          Avg Video Rate  Max 1-Sec Rate  Max 1-Sec Time  Max 5-Sec Rate  Max 5-Sec Time  Max 10Sec Rate  Max 10Sec Time  Avg Frame Size  Max Frame Size  Max Frame Time
------          -------         ------          --------------  --------------  --------------  --------------  --------------  --------------  --------------  --------------  --------------  --------------
1               0:00:00.000     0:01:12.072     14 133 kbps     22 587 kbps     00:01:01.811    17 316 kbps     00:00:55.805    16 456 kbps     00:00:52.802    73 725 bytes    783 397 bytes   00:00:52.844
STREAM DIAGNOSTICS:
File            PID             Type            Codec           Language                Seconds                 Bitrate                 Bytes           Packets
----            ---             ----            -----           --------                --------------          --------------          -------------   -----
00006.M2TS      4113 (0x1011)   0x1B            AVC                                     71,989                  14 149                  127 322 583     693 013
QUICK SUMMARY:
Disc Title: Rush - 2112 (BD)Disc Size: 12 522 209 266 bytesProtection: AACSBD-Java: YesPlaylist: 00006.MPLSSize: 133 675 008 bytesLength: 0:01:12.072Total Bitrate: 14,84 MbpsVideo: MPEG-4 AVC Video / 14133 kbps / 1080p / 23,976 fps / 16:9 / High Profile 4.1
********************PLAYLIST: 01007.MPLS********************
Total   Video
Title                                                           Codec   Length  Movie Size      Disc Size       Bitrate Bitrate Main Audio Track                          Secondary Audio Track
-----                                                           ------  ------- --------------  --------------  ------- ------- ------------------                        ---------------------
01007.MPLS                                                      AVC     0:01:12 133 675 008     12 522 209 266  14,84   14,13
DISC INFO:
Disc Title:     Rush - 2112 (BD)
Disc Size:      12 522 209 266 bytes
Protection:     AACS
BD-Java:        Yes
BDInfo:         0.5.8
PLAYLIST REPORT:
Name:                   01007.MPLS
Length:                 0:01:12.072 (h:m:s.ms)
Size:                   133 675 008 bytes
Total Bitrate:          14,84 Mbps
VIDEO:
Codec                   Bitrate             Description
-----                   -------             -----------
MPEG-4 AVC Video        14133 kbps          1080p / 23,976 fps / 16:9 / High Profile 4.1
FILES:
Name            Time In         Length          Size            Total Bitrate
----            -------         ------          ----            -------------
00006.M2TS      0:00:00.000     0:01:12.072     133 675 008     14 838
CHAPTERS:
Number          Time In         Length          Avg Video Rate  Max 1-Sec Rate  Max 1-Sec Time  Max 5-Sec Rate  Max 5-Sec Time  Max 10Sec Rate  Max 10Sec Time  Avg Frame Size  Max Frame Size  Max Frame Time
------          -------         ------          --------------  --------------  --------------  --------------  --------------  --------------  --------------  --------------  --------------  --------------
1               0:00:00.000     0:00:00.208     20 756 kbps     0 kbps          00:00:00.000    0 kbps          00:00:00.000    0 kbps          00:00:00.000    90 174 bytes    535 842 bytes   00:00:00.000
2               0:00:00.208     0:00:00.792     13 756 kbps     0 kbps          00:00:00.000    0 kbps          00:00:00.000    0 kbps          00:00:00.000    71 717 bytes    762 002 bytes   00:00:00.959
3               0:00:01.000     0:00:01.000     13 513 kbps     13 513 kbps     00:00:01.000    0 kbps          00:00:00.000    0 kbps          00:00:00.000    70 450 bytes    750 445 bytes   00:00:01.626
4               0:00:02.001     0:00:01.000     10 423 kbps     10 423 kbps     00:00:02.001    0 kbps          00:00:00.000    0 kbps          00:00:00.000    54 341 bytes    782 298 bytes   00:00:02.794
5               0:00:03.002     0:00:01.001     9 378 kbps      9 378 kbps      00:00:03.003    0 kbps          00:00:00.000    0 kbps          00:00:00.000    48 891 bytes    608 109 bytes   00:00:03.795
6               0:00:04.004     0:00:01.000     11 374 kbps     11 374 kbps     00:00:04.003    0 kbps          00:00:00.000    0 kbps          00:00:00.000    59 300 bytes    548 717 bytes   00:00:05.005
7               0:00:05.005     0:00:01.001     17 006 kbps     17 006 kbps     00:00:05.005    0 kbps          00:00:00.000    0 kbps          00:00:00.000    88 659 bytes    636 399 bytes   00:00:05.797
8               0:00:06.006     0:00:01.001     19 338 kbps     19 338 kbps     00:00:06.006    0 kbps          00:00:00.000    0 kbps          00:00:00.000    100 819 bytes   686 072 bytes   00:00:07.007
9               0:00:07.007     0:00:01.001     13 221 kbps     13 221 kbps     00:00:07.007    0 kbps          00:00:00.000    0 kbps          00:00:00.000    68 930 bytes    733 735 bytes   00:00:07.799
10              0:00:08.008     0:00:01.000     14 400 kbps     14 400 kbps     00:00:08.008    0 kbps          00:00:00.000    0 kbps          00:00:00.000    75 072 bytes    668 894 bytes   00:00:08.800
11              0:00:09.009     0:00:01.000     16 955 kbps     16 955 kbps     00:00:09.009    0 kbps          00:00:00.000    0 kbps          00:00:00.000    88 397 bytes    745 306 bytes   00:00:09.801
12              0:00:10.010     0:00:01.001     10 499 kbps     10 499 kbps     00:00:10.010    0 kbps          00:00:00.000    0 kbps          00:00:00.000    54 737 bytes    732 377 bytes   00:00:10.802
13              0:00:11.011     0:00:01.000     12 347 kbps     12 347 kbps     00:00:11.011    0 kbps          00:00:00.000    0 kbps          00:00:00.000    64 369 bytes    519 612 bytes   00:00:11.970
14              0:00:12.012     0:00:01.000     18 846 kbps     18 846 kbps     00:00:12.012    0 kbps          00:00:00.000    0 kbps          00:00:00.000    98 255 bytes    689 906 bytes   00:00:13.013
15              0:00:13.013     0:00:01.001     14 086 kbps     14 086 kbps     00:00:13.013    0 kbps          00:00:00.000    0 kbps          00:00:00.000    73 436 bytes    756 763 bytes   00:00:13.805
16              0:00:14.014     0:00:01.000     15 811 kbps     15 811 kbps     00:00:14.014    0 kbps          00:00:00.000    0 kbps          00:00:00.000    82 430 bytes    671 627 bytes   00:00:14.806
17              0:00:15.015     0:00:01.000     14 086 kbps     14 086 kbps     00:00:15.015    0 kbps          00:00:00.000    0 kbps          00:00:00.000    73 440 bytes    596 430 bytes   00:00:16.015
18              0:00:16.015     0:00:01.001     16 792 kbps     16 792 kbps     00:00:16.015    0 kbps          00:00:00.000    0 kbps          00:00:00.000    87 545 bytes    700 271 bytes   00:00:16.808
19              0:00:17.017     0:00:01.000     17 017 kbps     17 017 kbps     00:00:17.016    0 kbps          00:00:00.000    0 kbps          00:00:00.000    88 718 bytes    703 381 bytes   00:00:17.809
20              0:00:18.017     0:00:01.001     15 858 kbps     15 858 kbps     00:00:18.017    0 kbps          00:00:00.000    0 kbps          00:00:00.000    82 674 bytes    696 334 bytes   00:00:19.018
21              0:00:19.018     0:00:01.001     13 793 kbps     13 793 kbps     00:00:19.018    0 kbps          00:00:00.000    0 kbps          00:00:00.000    71 909 bytes    727 283 bytes   00:00:19.811
22              0:00:20.020     0:00:01.000     11 551 kbps     11 551 kbps     00:00:20.019    0 kbps          00:00:00.000    0 kbps          00:00:00.000    60 219 bytes    661 022 bytes   00:00:21.020
23              0:00:21.020     0:00:01.001     10 998 kbps     10 998 kbps     00:00:21.020    0 kbps          00:00:00.000    0 kbps          00:00:00.000    57 340 bytes    742 268 bytes   00:00:21.813
24              0:00:22.021     0:00:01.001     11 479 kbps     11 479 kbps     00:00:22.021    0 kbps          00:00:00.000    0 kbps          00:00:00.000    59 847 bytes    693 511 bytes   00:00:22.814
25              0:00:23.023     0:00:01.000     9 131 kbps      9 131 kbps      00:00:23.022    0 kbps          00:00:00.000    0 kbps          00:00:00.000    47 606 bytes    555 609 bytes   00:00:23.648
26              0:00:24.023     0:00:01.001     12 425 kbps     12 425 kbps     00:00:24.023    0 kbps          00:00:00.000    0 kbps          00:00:00.000    64 778 bytes    569 024 bytes   00:00:24.816
27              0:00:25.025     0:00:01.001     17 892 kbps     17 892 kbps     00:00:25.025    0 kbps          00:00:00.000    0 kbps          00:00:00.000    93 281 bytes    576 384 bytes   00:00:26.026
28              0:00:26.026     0:00:01.000     15 025 kbps     15 025 kbps     00:00:26.025    0 kbps          00:00:00.000    0 kbps          00:00:00.000    78 335 bytes    701 920 bytes   00:00:26.818
29              0:00:27.027     0:00:01.001     15 695 kbps     15 695 kbps     00:00:27.027    0 kbps          00:00:00.000    0 kbps          00:00:00.000    81 829 bytes    674 680 bytes   00:00:28.028
30              0:00:28.028     0:00:01.001     15 035 kbps     15 035 kbps     00:00:28.028    0 kbps          00:00:00.000    0 kbps          00:00:00.000    78 385 bytes    740 448 bytes   00:00:28.820
31              0:00:29.029     0:00:01.000     15 380 kbps     15 380 kbps     00:00:29.028    0 kbps          00:00:00.000    0 kbps          00:00:00.000    80 184 bytes    651 794 bytes   00:00:29.821
32              0:00:30.030     0:00:01.001     16 526 kbps     16 526 kbps     00:00:30.030    0 kbps          00:00:00.000    0 kbps          00:00:00.000    86 158 bytes    627 588 bytes   00:00:30.822
33              0:00:31.031     0:00:01.000     14 772 kbps     14 772 kbps     00:00:31.030    0 kbps          00:00:00.000    0 kbps          00:00:00.000    77 015 bytes    725 922 bytes   00:00:31.823
34              0:00:32.031     0:00:01.001     13 718 kbps     13 718 kbps     00:00:32.032    0 kbps          00:00:00.000    0 kbps          00:00:00.000    71 521 bytes    598 410 bytes   00:00:33.033
35              0:00:33.033     0:00:01.000     17 487 kbps     17 487 kbps     00:00:33.033    0 kbps          00:00:00.000    0 kbps          00:00:00.000    91 171 bytes    724 658 bytes   00:00:33.825
36              0:00:34.034     0:00:01.000     17 538 kbps     17 538 kbps     00:00:34.034    0 kbps          00:00:00.000    0 kbps          00:00:00.000    91 435 bytes    777 567 bytes   00:00:34.826
37              0:00:35.034     0:00:01.001     17 311 kbps     17 311 kbps     00:00:35.035    0 kbps          00:00:00.000    0 kbps          00:00:00.000    90 252 bytes    704 684 bytes   00:00:35.827
38              0:00:36.036     0:00:01.000     14 918 kbps     14 918 kbps     00:00:36.036    0 kbps          00:00:00.000    0 kbps          00:00:00.000    77 778 bytes    774 310 bytes   00:00:36.828
39              0:00:37.037     0:00:01.000     14 788 kbps     14 788 kbps     00:00:37.037    0 kbps          00:00:00.000    0 kbps          00:00:00.000    77 100 bytes    744 342 bytes   00:00:37.829
40              0:00:38.037     0:00:01.001     11 717 kbps     11 717 kbps     00:00:38.038    0 kbps          00:00:00.000    0 kbps          00:00:00.000    61 086 bytes    463 873 bytes   00:00:38.830
41              0:00:39.039     0:00:01.000     10 983 kbps     10 983 kbps     00:00:39.039    0 kbps          00:00:00.000    0 kbps          00:00:00.000    57 261 bytes    476 171 bytes   00:00:40.040
42              0:00:40.040     0:00:01.000     14 371 kbps     14 371 kbps     00:00:40.040    0 kbps          00:00:00.000    0 kbps          00:00:00.000    74 925 bytes    600 110 bytes   00:00:41.040
43              0:00:41.040     0:00:01.001     19 501 kbps     19 501 kbps     00:00:41.041    0 kbps          00:00:00.000    0 kbps          00:00:00.000    101 670 bytes   751 692 bytes   00:00:42.042
44              0:00:42.042     0:00:01.000     10 035 kbps     10 035 kbps     00:00:42.042    0 kbps          00:00:00.000    0 kbps          00:00:00.000    52 315 bytes    779 455 bytes   00:00:42.834
45              0:00:43.043     0:00:01.000     13 173 kbps     13 173 kbps     00:00:43.043    0 kbps          00:00:00.000    0 kbps          00:00:00.000    68 679 bytes    730 507 bytes   00:00:44.002
46              0:00:44.043     0:00:01.001     15 765 kbps     15 765 kbps     00:00:44.044    0 kbps          00:00:00.000    0 kbps          00:00:00.000    82 189 bytes    776 931 bytes   00:00:44.669
47              0:00:45.045     0:00:01.000     13 937 kbps     13 937 kbps     00:00:45.045    0 kbps          00:00:00.000    0 kbps          00:00:00.000    72 659 bytes    769 138 bytes   00:00:45.837
48              0:00:46.046     0:00:01.000     11 318 kbps     11 318 kbps     00:00:46.046    0 kbps          00:00:00.000    0 kbps          00:00:00.000    59 007 bytes    691 099 bytes   00:00:47.047
49              0:00:47.047     0:00:01.001     11 324 kbps     11 324 kbps     00:00:47.047    0 kbps          00:00:00.000    0 kbps          00:00:00.000    59 036 bytes    774 784 bytes   00:00:47.839
50              0:00:48.048     0:00:01.000     15 651 kbps     15 651 kbps     00:00:48.048    0 kbps          00:00:00.000    0 kbps          00:00:00.000    81 598 bytes    625 089 bytes   00:00:48.840
51              0:00:49.049     0:00:01.000     17 398 kbps     17 398 kbps     00:00:49.049    0 kbps          00:00:00.000    0 kbps          00:00:00.000    90 703 bytes    619 494 bytes   00:00:49.841
52              0:00:50.050     0:00:01.001     11 293 kbps     11 293 kbps     00:00:50.050    0 kbps          00:00:00.000    0 kbps          00:00:00.000    58 877 bytes    677 630 bytes   00:00:50.842
53              0:00:51.051     0:00:01.000     11 043 kbps     11 043 kbps     00:00:51.051    0 kbps          00:00:00.000    0 kbps          00:00:00.000    57 573 bytes    637 085 bytes   00:00:52.052
54              0:00:52.052     0:00:01.000     13 485 kbps     13 485 kbps     00:00:52.052    0 kbps          00:00:00.000    0 kbps          00:00:00.000    70 306 bytes    783 397 bytes   00:00:52.844
55              0:00:53.053     0:00:01.001     16 016 kbps     16 016 kbps     00:00:53.053    0 kbps          00:00:00.000    0 kbps          00:00:00.000    83 498 bytes    621 394 bytes   00:00:54.054
56              0:00:54.054     0:00:01.000     16 574 kbps     16 574 kbps     00:00:54.054    0 kbps          00:00:00.000    0 kbps          00:00:00.000    86 410 bytes    747 050 bytes   00:00:54.846
57              0:00:55.055     0:00:01.000     13 708 kbps     13 708 kbps     00:00:55.055    0 kbps          00:00:00.000    0 kbps          00:00:00.000    71 465 bytes    781 787 bytes   00:00:55.847
58              0:00:56.056     0:00:01.000     16 920 kbps     16 920 kbps     00:00:56.056    0 kbps          00:00:00.000    0 kbps          00:00:00.000    88 214 bytes    634 459 bytes   00:00:56.848
59              0:00:57.057     0:00:01.001     16 565 kbps     16 565 kbps     00:00:57.057    0 kbps          00:00:00.000    0 kbps          00:00:00.000    86 364 bytes    620 956 bytes   00:00:58.058
60              0:00:58.058     0:00:01.000     15 734 kbps     15 734 kbps     00:00:58.058    0 kbps          00:00:00.000    0 kbps          00:00:00.000    82 028 bytes    776 826 bytes   00:00:58.850
61              0:00:59.059     0:00:01.000     16 526 kbps     16 526 kbps     00:00:59.059    0 kbps          00:00:00.000    0 kbps          00:00:00.000    86 157 bytes    593 642 bytes   00:00:59.851
62              0:01:00.060     0:00:01.001     15 639 kbps     15 639 kbps     00:01:00.060    0 kbps          00:00:00.000    0 kbps          00:00:00.000    81 533 bytes    589 492 bytes   00:01:00.685
63              0:01:01.061     0:00:01.000     15 030 kbps     15 030 kbps     00:01:01.061    0 kbps          00:00:00.000    0 kbps          00:00:00.000    78 360 bytes    648 002 bytes   00:01:01.853
64              0:01:02.062     0:00:01.000     16 606 kbps     16 606 kbps     00:01:02.062    0 kbps          00:00:00.000    0 kbps          00:00:00.000    86 574 bytes    724 864 bytes   00:01:02.687
65              0:01:03.063     0:00:01.000     14 064 kbps     14 064 kbps     00:01:03.063    0 kbps          00:00:00.000    0 kbps          00:00:00.000    73 322 bytes    555 970 bytes   00:01:03.855
66              0:01:04.063     0:00:01.001     10 126 kbps     10 126 kbps     00:01:04.063    0 kbps          00:00:00.000    0 kbps          00:00:00.000    52 793 bytes    527 028 bytes   00:01:05.065
67              0:01:05.065     0:00:01.001     15 962 kbps     15 962 kbps     00:01:05.065    0 kbps          00:00:00.000    0 kbps          00:00:00.000    83 218 bytes    640 912 bytes   00:01:06.066
68              0:01:06.066     0:00:01.000     12 598 kbps     12 598 kbps     00:01:06.065    0 kbps          00:00:00.000    0 kbps          00:00:00.000    65 680 bytes    769 137 bytes   00:01:06.858
69              0:01:07.066     0:00:01.001     14 064 kbps     14 064 kbps     00:01:07.066    0 kbps          00:00:00.000    0 kbps          00:00:00.000    73 322 bytes    494 537 bytes   00:01:07.859
70              0:01:08.068     0:00:01.001     14 267 kbps     14 267 kbps     00:01:08.068    0 kbps          00:00:00.000    0 kbps          00:00:00.000    74 381 bytes    636 510 bytes   00:01:09.069
71              0:01:09.069     0:00:01.000     14 258 kbps     14 258 kbps     00:01:09.068    0 kbps          00:00:00.000    0 kbps          00:00:00.000    74 332 bytes    758 743 bytes   00:01:09.861
72              0:01:10.069     0:00:01.001     10 259 kbps     10 259 kbps     00:01:10.069    0 kbps          00:00:00.000    0 kbps          00:00:00.000    53 485 bytes    767 788 bytes   00:01:10.695
73              0:01:11.071     0:00:01.001     31 kbps         0 kbps          00:00:00.000    0 kbps          00:00:00.000    0 kbps          00:00:00.000    174 bytes       838 bytes       00:01:11.905
STREAM DIAGNOSTICS:
File            PID             Type            Codec           Language                Seconds                 Bitrate                 Bytes           Packets
----            ---             ----            -----           --------                --------------          --------------          -------------   -----
00006.M2TS      4113 (0x1011)   0x1B            AVC                                     71,989                  14 149                  127 322 583     693 013
QUICK SUMMARY:
Disc Title: Rush - 2112 (BD)Disc Size: 12 522 209 266 bytesProtection: AACSBD-Java: YesPlaylist: 01007.MPLSSize: 133 675 008 bytesLength: 0:01:12.072Total Bitrate: 14,84 MbpsVideo: MPEG-4 AVC Video / 14133 kbps / 1080p / 23,976 fps / 16:9 / High Profile 4.1
********************PLAYLIST: 00000.MPLS********************
Total   Video
Title                                                           Codec   Length  Movie Size      Disc Size       Bitrate Bitrate Main Audio Track                          Secondary Audio Track
-----                                                           ------  ------- --------------  --------------  ------- ------- ------------------                        ---------------------
00000.MPLS                                                      AVC     0:00:44 134 264 832     12 522 209 266  24,16   21,46   DTS-HD Master 5.1 1420Kbps (48kHz/16-bit)
DISC INFO:
Disc Title:     Rush - 2112 (BD)
Disc Size:      12 522 209 266 bytes
Protection:     AACS
BD-Java:        Yes
BDInfo:         0.5.8
PLAYLIST REPORT:
Name:                   00000.MPLS
Length:                 0:00:44.461 (h:m:s.ms)
Size:                   134 264 832 bytes
Total Bitrate:          24,16 Mbps
VIDEO:
Codec                   Bitrate             Description
-----                   -------             -----------
MPEG-4 AVC Video        21461 kbps          1080p / 23,976 fps / 16:9 / High Profile 4.1
AUDIO:
Codec                           Language        Bitrate         Description
-----                           --------        -------         -----------
DTS-HD Master Audio             English         1420 kbps       5.1 / 48 kHz / 1420 kbps / 16-bit (DTS Core: 5.1 / 48 kHz / 1509 kbps / 16-bit)
FILES:
Name            Time In         Length          Size            Total Bitrate
----            -------         ------          ----            -------------
00000.M2TS      0:00:00.000     0:00:44.461     134 264 832     24 159
CHAPTERS:
Number          Time In         Length          Avg Video Rate  Max 1-Sec Rate  Max 1-Sec Time  Max 5-Sec Rate  Max 5-Sec Time  Max 10Sec Rate  Max 10Sec Time  Avg Frame Size  Max Frame Size  Max Frame Time
------          -------         ------          --------------  --------------  --------------  --------------  --------------  --------------  --------------  --------------  --------------  --------------
1               0:00:00.000     0:00:44.461     21 461 kbps     50 993 kbps     00:00:18.309    40 066 kbps     00:00:14.139    34 464 kbps     00:00:13.972    111 995 bytes   445 444 bytes   00:00:25.275
STREAM DIAGNOSTICS:
File            PID             Type            Codec           Language                Seconds                 Bitrate                 Bytes           Packets
----            ---             ----            -----           --------                --------------          --------------          -------------   -----
00000.M2TS      4113 (0x1011)   0x1B            AVC                                     44,378                  21 502                  119 274 670     648 848
00000.M2TS      4352 (0x1100)   0x86            DTS-HD MA       eng (English)           44,378                  1 423                   7 892 648       48 480
QUICK SUMMARY:
Disc Title: Rush - 2112 (BD)Disc Size: 12 522 209 266 bytesProtection: AACSBD-Java: YesPlaylist: 00000.MPLSSize: 134 264 832 bytesLength: 0:00:44.461Total Bitrate: 24,16 MbpsVideo: MPEG-4 AVC Video / 21461 kbps / 1080p / 23,976 fps / 16:9 / High Profile 4.1Audio: English / DTS-HD Master Audio / 5.1 / 48 kHz / 1420 kbps / 16-bit (DTS Core: 5.1 / 48 kHz / 1509 kbps / 16-bit)
********************PLAYLIST: 01000.MPLS********************
Total   Video
Title                                                           Codec   Length  Movie Size      Disc Size       Bitrate Bitrate Main Audio Track                          Secondary Audio Track
-----                                                           ------  ------- --------------  --------------  ------- ------- ------------------                        ---------------------
01000.MPLS                                                      AVC     0:00:44 134 264 832     12 522 209 266  24,16   21,46   DTS-HD Master 5.1 1420Kbps (48kHz/16-bit)
DISC INFO:
Disc Title:     Rush - 2112 (BD)
Disc Size:      12 522 209 266 bytes
Protection:     AACS
BD-Java:        Yes
BDInfo:         0.5.8
PLAYLIST REPORT:
Name:                   01000.MPLS
Length:                 0:00:44.461 (h:m:s.ms)
Size:                   134 264 832 bytes
Total Bitrate:          24,16 Mbps
VIDEO:
Codec                   Bitrate             Description
-----                   -------             -----------
MPEG-4 AVC Video        21461 kbps          1080p / 23,976 fps / 16:9 / High Profile 4.1
AUDIO:
Codec                           Language        Bitrate         Description
-----                           --------        -------         -----------
DTS-HD Master Audio             English         1420 kbps       5.1 / 48 kHz / 1420 kbps / 16-bit (DTS Core: 5.1 / 48 kHz / 1509 kbps / 16-bit)
FILES:
Name            Time In         Length          Size            Total Bitrate
----            -------         ------          ----            -------------
00000.M2TS      0:00:00.000     0:00:44.461     134 264 832     24 159
CHAPTERS:
Number          Time In         Length          Avg Video Rate  Max 1-Sec Rate  Max 1-Sec Time  Max 5-Sec Rate  Max 5-Sec Time  Max 10Sec Rate  Max 10Sec Time  Avg Frame Size  Max Frame Size  Max Frame Time
------          -------         ------          --------------  --------------  --------------  --------------  --------------  --------------  --------------  --------------  --------------  --------------
1               0:00:00.000     0:00:44.461     21 461 kbps     50 993 kbps     00:00:18.309    40 066 kbps     00:00:14.139    34 464 kbps     00:00:13.972    111 995 bytes   445 444 bytes   00:00:25.275
STREAM DIAGNOSTICS:
File            PID             Type            Codec           Language                Seconds                 Bitrate                 Bytes           Packets
----            ---             ----            -----           --------                --------------          --------------          -------------   -----
00000.M2TS      4113 (0x1011)   0x1B            AVC                                     44,378                  21 502                  119 274 670     648 848
00000.M2TS      4352 (0x1100)   0x86            DTS-HD MA       eng (English)           44,378                  1 423                   7 892 648       48 480
QUICK SUMMARY:
Disc Title: Rush - 2112 (BD)Disc Size: 12 522 209 266 bytesProtection: AACSBD-Java: YesPlaylist: 01000.MPLSSize: 134 264 832 bytesLength: 0:00:44.461Total Bitrate: 24,16 MbpsVideo: MPEG-4 AVC Video / 21461 kbps / 1080p / 23,976 fps / 16:9 / High Profile 4.1Audio: English / DTS-HD Master Audio / 5.1 / 48 kHz / 1420 kbps / 16-bit (DTS Core: 5.1 / 48 kHz / 1509 kbps / 16-bit)
********************PLAYLIST: 00004.MPLS********************
Total   Video
Title                                                           Codec   Length  Movie Size      Disc Size       Bitrate Bitrate Main Audio Track                          Secondary Audio Track
-----                                                           ------  ------- --------------  --------------  ------- ------- ------------------                        ---------------------
00004.MPLS                                                      AVC     0:00:28 41 029 632      12 522 209 266  11,71   11,14
DISC INFO:
Disc Title:     Rush - 2112 (BD)
Disc Size:      12 522 209 266 bytes
Protection:     AACS
BD-Java:        Yes
BDInfo:         0.5.8
PLAYLIST REPORT:
Name:                   00004.MPLS
Length:                 0:00:28.028 (h:m:s.ms)
Size:                   41 029 632 bytes
Total Bitrate:          11,71 Mbps
VIDEO:
Codec                   Bitrate             Description
-----                   -------             -----------
MPEG-4 AVC Video        11137 kbps          1080p / 23,976 fps / 16:9 / High Profile 4.1
FILES:
Name            Time In         Length          Size            Total Bitrate
----            -------         ------          ----            -------------
00004.M2TS      0:00:00.000     0:00:28.028     41 029 632      11 711
CHAPTERS:
Number          Time In         Length          Avg Video Rate  Max 1-Sec Rate  Max 1-Sec Time  Max 5-Sec Rate  Max 5-Sec Time  Max 10Sec Rate  Max 10Sec Time  Avg Frame Size  Max Frame Size  Max Frame Time
------          -------         ------          --------------  --------------  --------------  --------------  --------------  --------------  --------------  --------------  --------------  --------------
1               0:00:00.000     0:00:28.028     11 137 kbps     15 449 kbps     00:00:23.022    13 815 kbps     00:00:22.021    13 419 kbps     00:00:17.017    58 065 bytes    778 248 bytes   00:00:19.811
STREAM DIAGNOSTICS:
File            PID             Type            Codec           Language                Seconds                 Bitrate                 Bytes           Packets
----            ---             ----            -----           --------                --------------          --------------          -------------   -----
00004.M2TS      4113 (0x1011)   0x1B            AVC                                     27,945                  11 171                  39 019 850      212 458
QUICK SUMMARY:
Disc Title: Rush - 2112 (BD)Disc Size: 12 522 209 266 bytesProtection: AACSBD-Java: YesPlaylist: 00004.MPLSSize: 41 029 632 bytesLength: 0:00:28.028Total Bitrate: 11,71 MbpsVideo: MPEG-4 AVC Video / 11137 kbps / 1080p / 23,976 fps / 16:9 / High Profile 4.1
********************PLAYLIST: 01004.MPLS********************
Total   Video
Title                                                           Codec   Length  Movie Size      Disc Size       Bitrate Bitrate Main Audio Track                          Secondary Audio Track
-----                                                           ------  ------- --------------  --------------  ------- ------- ------------------                        ---------------------
01004.MPLS                                                      AVC     0:00:28 41 029 632      12 522 209 266  11,71   11,14
DISC INFO:
Disc Title:     Rush - 2112 (BD)
Disc Size:      12 522 209 266 bytes
Protection:     AACS
BD-Java:        Yes
BDInfo:         0.5.8
PLAYLIST REPORT:
Name:                   01004.MPLS
Length:                 0:00:28.028 (h:m:s.ms)
Size:                   41 029 632 bytes
Total Bitrate:          11,71 Mbps
VIDEO:
Codec                   Bitrate             Description
-----                   -------             -----------
MPEG-4 AVC Video        11137 kbps          1080p / 23,976 fps / 16:9 / High Profile 4.1
FILES:
Name            Time In         Length          Size            Total Bitrate
----            -------         ------          ----            -------------
00004.M2TS      0:00:00.000     0:00:28.028     41 029 632      11 711
CHAPTERS:
Number          Time In         Length          Avg Video Rate  Max 1-Sec Rate  Max 1-Sec Time  Max 5-Sec Rate  Max 5-Sec Time  Max 10Sec Rate  Max 10Sec Time  Avg Frame Size  Max Frame Size  Max Frame Time
------          -------         ------          --------------  --------------  --------------  --------------  --------------  --------------  --------------  --------------  --------------  --------------
1               0:00:00.000     0:00:00.208     28 202 kbps     0 kbps          00:00:00.000    0 kbps          00:00:00.000    0 kbps          00:00:00.000    122 522 bytes   668 997 bytes   00:00:00.000
2               0:00:00.208     0:00:00.792     12 707 kbps     0 kbps          00:00:00.000    0 kbps          00:00:00.000    0 kbps          00:00:00.000    66 252 bytes    668 992 bytes   00:00:00.792
3               0:00:01.000     0:00:01.000     7 954 kbps      7 954 kbps      00:00:01.000    0 kbps          00:00:00.000    0 kbps          00:00:00.000    41 467 bytes    407 116 bytes   00:00:01.793
4               0:00:02.001     0:00:01.000     7 868 kbps      7 868 kbps      00:00:02.001    0 kbps          00:00:00.000    0 kbps          00:00:00.000    41 018 bytes    387 532 bytes   00:00:02.794
5               0:00:03.002     0:00:01.001     7 515 kbps      7 515 kbps      00:00:03.003    0 kbps          00:00:00.000    0 kbps          00:00:00.000    39 179 bytes    385 936 bytes   00:00:03.795
6               0:00:04.004     0:00:01.000     6 303 kbps      6 303 kbps      00:00:04.003    0 kbps          00:00:00.000    0 kbps          00:00:00.000    32 861 bytes    341 988 bytes   00:00:05.005
7               0:00:05.005     0:00:01.001     7 903 kbps      7 903 kbps      00:00:05.005    0 kbps          00:00:00.000    0 kbps          00:00:00.000    41 205 bytes    421 116 bytes   00:00:06.006
8               0:00:06.006     0:00:01.001     8 426 kbps      8 426 kbps      00:00:06.006    0 kbps          00:00:00.000    0 kbps          00:00:00.000    43 927 bytes    433 778 bytes   00:00:06.798
9               0:00:07.007     0:00:01.001     6 371 kbps      6 371 kbps      00:00:07.007    0 kbps          00:00:00.000    0 kbps          00:00:00.000    33 213 bytes    343 836 bytes   00:00:07.799
10              0:00:08.008     0:00:01.000     8 727 kbps      8 727 kbps      00:00:08.008    0 kbps          00:00:00.000    0 kbps          00:00:00.000    45 499 bytes    444 644 bytes   00:00:09.009
11              0:00:09.009     0:00:01.000     9 512 kbps      9 512 kbps      00:00:09.009    0 kbps          00:00:00.000    0 kbps          00:00:00.000    49 594 bytes    458 493 bytes   00:00:09.801
12              0:00:10.010     0:00:01.001     10 410 kbps     10 410 kbps     00:00:10.010    0 kbps          00:00:00.000    0 kbps          00:00:00.000    54 272 bytes    570 261 bytes   00:00:11.011
13              0:00:11.011     0:00:01.000     14 466 kbps     14 466 kbps     00:00:11.011    0 kbps          00:00:00.000    0 kbps          00:00:00.000    75 418 bytes    616 280 bytes   00:00:11.803
14              0:00:12.012     0:00:01.000     11 767 kbps     11 767 kbps     00:00:12.012    0 kbps          00:00:00.000    0 kbps          00:00:00.000    61 349 bytes    551 537 bytes   00:00:13.013
15              0:00:13.013     0:00:01.001     13 876 kbps     13 876 kbps     00:00:13.013    0 kbps          00:00:00.000    0 kbps          00:00:00.000    72 345 bytes    596 682 bytes   00:00:13.805
16              0:00:14.014     0:00:01.000     11 074 kbps     11 074 kbps     00:00:14.014    0 kbps          00:00:00.000    0 kbps          00:00:00.000    57 734 bytes    535 239 bytes   00:00:15.015
17              0:00:15.015     0:00:01.000     11 853 kbps     11 853 kbps     00:00:15.015    0 kbps          00:00:00.000    0 kbps          00:00:00.000    61 796 bytes    580 729 bytes   00:00:16.015
18              0:00:16.015     0:00:01.001     11 561 kbps     11 561 kbps     00:00:16.015    0 kbps          00:00:00.000    0 kbps          00:00:00.000    60 275 bytes    622 876 bytes   00:00:16.808
19              0:00:17.017     0:00:01.000     12 200 kbps     12 200 kbps     00:00:17.016    0 kbps          00:00:00.000    0 kbps          00:00:00.000    63 605 bytes    588 688 bytes   00:00:18.017
20              0:00:18.017     0:00:01.001     15 002 kbps     15 002 kbps     00:00:18.017    0 kbps          00:00:00.000    0 kbps          00:00:00.000    78 215 bytes    699 231 bytes   00:00:19.018
21              0:00:19.018     0:00:01.001     13 387 kbps     13 387 kbps     00:00:19.018    0 kbps          00:00:00.000    0 kbps          00:00:00.000    69 791 bytes    778 248 bytes   00:00:19.811
22              0:00:20.020     0:00:01.000     13 383 kbps     13 383 kbps     00:00:20.019    0 kbps          00:00:00.000    0 kbps          00:00:00.000    69 775 bytes    690 061 bytes   00:00:20.812
23              0:00:21.020     0:00:01.001     11 138 kbps     11 138 kbps     00:00:21.020    0 kbps          00:00:00.000    0 kbps          00:00:00.000    58 069 bytes    768 900 bytes   00:00:21.813
24              0:00:22.021     0:00:01.001     14 270 kbps     14 270 kbps     00:00:22.021    0 kbps          00:00:00.000    0 kbps          00:00:00.000    74 399 bytes    623 163 bytes   00:00:22.814
25              0:00:23.023     0:00:01.000     15 449 kbps     15 449 kbps     00:00:23.022    0 kbps          00:00:00.000    0 kbps          00:00:00.000    80 545 bytes    676 014 bytes   00:00:24.023
26              0:00:24.023     0:00:01.001     14 140 kbps     14 140 kbps     00:00:24.023    0 kbps          00:00:00.000    0 kbps          00:00:00.000    73 717 bytes    740 410 bytes   00:00:24.816
27              0:00:25.025     0:00:01.001     11 506 kbps     11 506 kbps     00:00:25.025    0 kbps          00:00:00.000    0 kbps          00:00:00.000    59 985 bytes    754 416 bytes   00:00:25.817
28              0:00:26.026     0:00:01.000     13 712 kbps     13 712 kbps     00:00:26.025    0 kbps          00:00:00.000    0 kbps          00:00:00.000    71 487 bytes    647 450 bytes   00:00:27.027
29              0:00:27.027     0:00:01.001     6 139 kbps      0 kbps          00:00:00.000    0 kbps          00:00:00.000    0 kbps          00:00:00.000    33 400 bytes    698 576 bytes   00:00:27.819
STREAM DIAGNOSTICS:
File            PID             Type            Codec           Language                Seconds                 Bitrate                 Bytes           Packets
----            ---             ----            -----           --------                --------------          --------------          -------------   -----
00004.M2TS      4113 (0x1011)   0x1B            AVC                                     27,945                  11 171                  39 019 850      212 458
QUICK SUMMARY:
Disc Title: Rush - 2112 (BD)Disc Size: 12 522 209 266 bytesProtection: AACSBD-Java: YesPlaylist: 01004.MPLSSize: 41 029 632 bytesLength: 0:00:28.028Total Bitrate: 11,71 MbpsVideo: MPEG-4 AVC Video / 11137 kbps / 1080p / 23,976 fps / 16:9 / High Profile 4.1

Источник (релизер): jarpomarx

Об альбоме (сборнике)

Released as a double-sided, flip-over book with the CD and Blu-Ray in an insert that separates the two halves. The first half has a cover with an updated version of the original 2112 cover art, song lyrics and credits, and album credits for both the original album and the deluxe edition.
The other half of the book is an original comic available only in this deluxe edition, that tells the 2112 story, and has a cover with the number "2112" above a character from the comic.


[torrentc.info]_t_5640292.torrent
Торрент: Зарегистрирован ·  [ 2018-11-07 02:15 ] ·  02568c96ffd8a2e74186ab17adf0ca6a434ea5ff

64 KB

Статус: проверено
Скачан: 0 раз
Размер: 11.66 GB
Оценка: 
(Голосов: 0)
Сказали спасибо: 0  Спасибо
Похожие темы
[Профиль]    [ЛС]
Показать сообщения:    
Ответить на тему

Текущее время: Сегодня 08:28

Часовой пояс: GMT + 7



Вы не можете начинать темы
Вы не можете отвечать на сообщения
Вы не можете редактировать свои сообщения
Вы не можете удалять свои сообщения
Вы не можете голосовать в опросах
Вы не можете прикреплять файлы к сообщениям
Вы можете скачивать файлы