Ray Wilson - Live ZDF at Bauhaus [2018, Rock, BDRip, 720p]

Ответить на тему
Статистика раздачи [Обновить пиров]
Размер:  3.77 GB   |    Зарегистрирован:  7 дней   |    Скачан:  0 раз

Полного источника не было: Никогда

 
   
 
 
 
Автор Сообщение

torrentc.info

Создавать темы 06-Ноя-2018 23:48

[Цитировать]

Ray Wilson - Live ZDF at Bauhaus
Жанр: Rock
Продолжительность: 01:16:17
Год выхода: 2018
Треклист:
01. Change
02. Sarah
03. Follow You Follow Me
04. Lemon Yellow Sun
05. That's All
06. Take It Slow
07. Alone
08. Solsbury Hill
09. Along The Way
10. No Son Of Mine
11. Wait For Better Days
12. Another Day
13. Inside
14. Mama
Источник Ray Wilson - Live ZDF at Bauhaus [2018, Rock, Blu-ray, 1080p]
Качество: BDRip
Разрешение видео/развертка: 720p
Формат файла: MKV
Видео кодек: H.264
Аудио кодек: FLAC, DTS
Видео: AVC, 1280x720 (16:9), 24.000 fps, 5 350 Kbps
Аудио#1: DTS, 48.0 KHz, 6 ch, 755 Kbps
Аудио#2: FLAC, 48.0 KHz, 2 ch, 968 kbps

MediaInfo/x264Logx264Log

[Information] [07.10.2018 22:27:59] Standard error stream-[Information] [07.10.2018 22:28:28] y4m [info]: 1280x720p 1:1 @ 24/1 fps (cfr)-[Information] [07.10.2018 22:28:28] x264 [info]: using SAR=1/1-[Information] [07.10.2018 22:28:28] x264 [info]: using cpu capabilities: MMX2 SSE2Fast SSSE3 SSE4.2 AVX-[Information] [07.10.2018 22:28:28] x264 [info]: profile High, level 4.1-[Information] [08.10.2018 5:56:58] x264 [info]: frame I:486 Avg QP:16.50 size: 95719-[Information] [08.10.2018 5:56:58] x264 [info]: frame P:28203 Avg QP:19.29 size: 44438-[Information] [08.10.2018 5:56:58] x264 [info]: frame B:81167 Avg QP:20.73 size: 21693-[Information] [08.10.2018 5:56:58] x264 [info]: consecutive B-frames: 1.9% 5.0% 16.7% 34.2% 19.2% 21.0% 1.2% 0.3% 0.2% 0.1% 0.2%-[Information] [08.10.2018 5:56:58] x264 [info]: mb I I16..4: 8.7% 73.3% 18.0%-[Information] [08.10.2018 5:56:58] x264 [info]: mb P I16..4: 4.9% 16.5% 2.4% P16..4: 31.2% 33.1% 8.6% 1.2% 0.1% skip: 1.9%-[Information] [08.10.2018 5:56:58] x264 [info]: mb B I16..4: 1.4% 3.0% 0.3% B16..8: 38.4% 21.8% 3.3% direct:12.5% skip:19.4% L0:44.2% L1:41.8% BI:14.0%-[Information] [08.10.2018 5:56:58] x264 [info]: 8x8 transform intra:67.4% inter:64.5%-[Information] [08.10.2018 5:56:58] x264 [info]: direct mvs spatial:97.4% temporal:2.6%-[Information] [08.10.2018 5:56:58] x264 [info]: coded y,uvDC,uvAC intra: 56.4% 87.2% 59.4% inter: 28.2% 51.1% 13.9%-[Information] [08.10.2018 5:56:58] x264 [info]: i16 v,h,dc,p: 33% 17% 9% 41%-[Information] [08.10.2018 5:56:58] x264 [info]: i8 v,h,dc,ddl,ddr,vr,hd,vl,hu: 7% 6% 12% 10% 13% 12% 13% 13% 15%-[Information] [08.10.2018 5:56:58] x264 [info]: i4 v,h,dc,ddl,ddr,vr,hd,vl,hu: 10% 7% 10% 9% 14% 12% 13% 11% 14%-[Information] [08.10.2018 5:56:58] x264 [info]: i8c dc,h,v,p: 45% 20% 17% 18%-[Information] [08.10.2018 5:56:58] x264 [info]: Weighted P-Frames: Y:6.0% UV:3.5%-[Information] [08.10.2018 5:56:58] x264 [info]: ref P L0: 47.9% 7.6% 17.9% 7.9% 5.8% 4.5% 3.7% 2.3% 2.2% 0.2% 0.0%-[Information] [08.10.2018 5:56:58] x264 [info]: ref B L0: 74.8% 11.3% 5.9% 2.9% 2.1% 1.7% 1.0% 0.3%-[Information] [08.10.2018 5:56:58] x264 [info]: ref B L1: 95.3% 4.7%-[Information] [08.10.2018 5:56:58] x264 [info]: kb/s:5349.11-[Information] [08.10.2018 5:56:58] encoded 109856 frames, 4.08 fps, 5349.11 kb/s
GeneralUnique ID : 321543560591335173901479888112861511297 (0xF1E709846AC632DFE18791F90F1EFE81)Complete name : K:\Ray Wilson - Live ZDF@ Bauhaus.BDRip720p.mkvFormat : MatroskaFormat version : Version 2File size : 3.77 GiBDuration : 1 h 16 minOverall bit rate mode : VariableOverall bit rate : 7 074 kb/sMovie name : Ray Wilson - Live ZDF@ Bauhaus.BDRip720p @ TorrentcEncoded date : UTC 2018-10-08 16:48:46Writing application : mkvmerge v26.0.0 ('In The Game') 64-bitWriting library : libebml v1.3.6 + libmatroska v1.4.9
VideoID : 1Format : AVCFormat/Info : Advanced Video CodecFormat profile : High@L4.1Format settings : CABAC / 9 Ref FramesFormat settings, CABAC : YesFormat settings, RefFrames : 9 framesCodec ID : V_MPEG4/ISO/AVCDuration : 1 h 16 minBit rate : 5 350 kb/sWidth : 1 280 pixelsHeight : 720 pixelsDisplay aspect ratio : 16:9Frame rate mode : ConstantFrame rate : 24.000 FPSColor space : YUVChroma subsampling : 4:2:0Bit depth : 8 bitsScan type : ProgressiveBits/(Pixel*Frame) : 0.242Stream size : 2.85 GiB (76%)Title : anbelk27 @ TorrentcWriting library : x264 core 155 r2901 7d0ff22Encoding settings : cabac=1 / ref=9 / deblock=1:-1:-2 / analyse=0x3:0x133 / me=umh / subme=11 / psy=1 / psy_rd=1.10:0.07 / mixed_ref=1 / me_range=32 / chroma_me=1 / trellis=2 / 8x8dct=1 / cqm=0 / deadzone=21,11 / fast_pskip=1 / chroma_qp_offset=-3 / threads=6 / lookahead_threads=1 / sliced_threads=0 / nr=0 / decimate=1 / interlaced=0 / bluray_compat=0 / constrained_intra=0 / bframes=10 / b_pyramid=2 / b_adapt=2 / b_bias=0 / direct=3 / weightb=1 / open_gop=0 / weightp=2 / keyint=240 / keyint_min=24 / scenecut=50 / intra_refresh=0 / rc_lookahead=120 / rc=2pass / mbtree=1 / bitrate=5350 / ratetol=1.0 / qcomp=0.60 / qpmin=0 / qpmax=69 / qpstep=4 / cplxblur=20.0 / qblur=0.5 / vbv_maxrate=50000 / vbv_bufsize=62500 / nal_hrd=none / filler=0 / ip_ratio=1.40 / aq=1:1.00Default : YesForced : No
Audio #1ID : 2Format : DTSFormat/Info : Digital Theater SystemsCodec ID : A_DTSDuration : 1 h 16 minBit rate mode : ConstantBit rate : 755 kb/sChannel(s) : 6 channelsChannel positions : Front: L C R, Side: L R, LFESampling rate : 48.0 kHzFrame rate : 93.750 FPS (512 SPF)Bit depth : 24 bitsCompression mode : LossyStream size : 412 MiB (11%)Title : DTS 5.1 @ 24 bitDefault : YesForced : No
Audio #2ID : 3Format : FLACFormat/Info : Free Lossless Audio CodecCodec ID : A_FLACDuration : 1 h 16 minBit rate mode : VariableBit rate : 968 kb/sChannel(s) : 2 channelsChannel positions : Front: L RSampling rate : 48.0 kHzFrame rate : 11.719 FPS (4096 SPF)Bit depth : 16 bitsStream size : 528 MiB (14%)Title : FLAC 2.0 @ 16 bitWriting library : libFLAC 1.2.1 (UTC 2007-09-17)Default : NoForced : No
Menu00:00:00.000 : en: 01. Change00:04:14.167 : en: 02. Sarah00:08:15.667 : en: 03. Follow You Follow Me00:12:48.917 : en: 04. Lemon Yellow Sun00:17:24.083 : en: 05. That's All00:22:00.375 : en: 06. Take It Slow00:27:13.208 : en: 07. Alone00:34:05.083 : en: 08. Solsbury Hill00:39:24.500 : en: 09. Along The Way00:43:30.125 : en: 10. No Son Of Mine00:50:43.625 : en: 11. Wait For Better Days00:55:42.417 : en: 12. Another Day01:01:31.208 : en: 13. Inside01:08:23.750 : en: 14. Mama


[torrentc.info]_t_5625792.torrent
Торрент: Зарегистрирован ·  [ 2018-11-06 23:47 ] ·  39c5db1aca821cd6c84e2190ad200c14f76524a2

76 KB

Статус: проверено
Скачан: 0 раз
Размер: 3.77 GB
Оценка: 
(Голосов: 0)
Сказали спасибо: 0  Спасибо
Похожие темы
[Профиль]    [ЛС]
Показать сообщения:    
Ответить на тему

Текущее время: Сегодня 16:06

Часовой пояс: GMT + 7



Вы не можете начинать темы
Вы не можете отвечать на сообщения
Вы не можете редактировать свои сообщения
Вы не можете удалять свои сообщения
Вы не можете голосовать в опросах
Вы не можете прикреплять файлы к сообщениям
Вы можете скачивать файлы