[TR24][OF] Fiona Monbet - Contrebande - 2018 (Contemporary Jazz, Folk, Violin)

Ответить на тему
Статистика раздачи [Обновить пиров]
Размер:  427 MB   |    Зарегистрирован:  7 дней   |    Скачан:  0 раз

Полного источника не было: Никогда

 
   
 
 
 
Автор Сообщение

torrentc.info

Создавать темы 06-Ноя-2018 15:23

[Цитировать]

F I O N A ' M O N B E T
C O N T R E B A N D E

'
[img=right]https://a.radikal.ru/a27/1811/ba/711fc3701b53.jpg[/img]
Жанр: Contemporary Jazz, Folk
Год издания: 2018
Издатель (лейбл): Fo Feo Productions
Страна исполнителя: France
Аудиокодек: FLAC (*.flac)
Разрядность: 24 bits / 48 kHz
Количество каналов: 2
Тип рипа: tracks
Продолжительность: 38:28
Источник (релизер): WEB
Наличие сканов: нет
Треклист:
01. Valse
02. Bess, You Is My Woman Now
03. Astoria 16
04. Tango
05. Luiza
06. Irlandalou
07. A Song
08. Mélissande
09. Smoly Market
10. L'aveu

Лог проверки качества

foobar2000 1.3.12 / Замер динамического диапазона (DR) 1.1.1Дата отчёта: 2018-11-05 16:19:39
--------------------------------------------------------------------------------Анализ: Fiona Monbet / Contrebande--------------------------------------------------------------------------------
DR Пики RMS Продолжительность трека--------------------------------------------------------------------------------DR12 -1.20 дБ -16.58 дБ 4:07 01-ValseDR12 -0.17 дБ -16.68 дБ 5:00 02-Bess, You Is My Woman NowDR13 -1.23 дБ -18.54 дБ 2:56 03-Astoria 16DR12 -0.18 дБ -15.08 дБ 4:59 04-TangoDR13 -1.59 дБ -21.35 дБ 4:06 05-LuizaDR12 -0.25 дБ -15.17 дБ 4:08 06-IrlandalouDR12 -0.26 дБ -15.02 дБ 2:21 07-"A" SongDR13 -3.77 дБ -20.58 дБ 4:01 08-MelissandeDR10 -0.13 дБ -12.57 дБ 3:47 09-Smoly MarketDR13 -2.04 дБ -20.86 дБ 3:04 10-L'aveu--------------------------------------------------------------------------------
Количество треков: 10Реальные значения DR: DR12
Частота: 48000 ГцКаналов: 2Разрядность: 24Битрейт: 1421 кбит/сКодек: FLAC================================================================================

Об альбоме

Five years after her album O’Ceol, the violinist Fiona Monbet has changed, assuming her difference of styles more than just virtuosity. Her style? She doesn’t choose between all the music that she loves, just compose with them to elaborate a trip both erudite and sensitive. From one border to the other, her new album offers a horizon with broad perspectives, while keeping her vision of the music. Open swing here, tango there, she can also go on towards waltz and country. Fiona Monbet had a double career: between jazz and classical music, and then quickly Irish folk music, gypsy swing, contemporary scores.

Состав

Fiona Monbet - violin
Antoine Boyer - guitar
Pierre Cussac - accordeon
Damien Varaillon - double bass


[torrentc.info]_t_5640005.torrent
Торрент: Зарегистрирован ·  [ 2018-11-06 15:23 ] ·  9f2c2bff505ec3d4985ffbf4f207698080d23ef0

18 KB

Статус: проверено
Скачан: 0 раз
Размер: 427 MB
Оценка: 
(Голосов: 0)
Сказали спасибо: 0  Спасибо
Похожие темы
[Профиль]    [ЛС]
Показать сообщения:    
Ответить на тему

Текущее время: Сегодня 12:18

Часовой пояс: GMT + 7



Вы не можете начинать темы
Вы не можете отвечать на сообщения
Вы не можете редактировать свои сообщения
Вы не можете удалять свои сообщения
Вы не можете голосовать в опросах
Вы не можете прикреплять файлы к сообщениям
Вы можете скачивать файлы