American Music Awards 2018/ AMA 2018 [2018, Pop, HDTV, 720p]

Ответить на тему
Статистика раздачи [Обновить пиров]
Размер:  12.22 GB   |    Зарегистрирован:  11 дней   |    Скачан:  0 раз

Полного источника не было: Никогда

 
   
 
 
 
Автор Сообщение

torrentc.info

Создавать темы 06-Ноя-2018 15:05

[Цитировать]

American Music Awards 2018 [img]https://upload.wikimedia.org/wikipedia/en/3/34/AMAs2018logo.png[/img]Дата/Год выхода: 09 октября 2018
Жанр: Pop
Страна/Место проведения: Microsoft Theater. USA
Язык комментариев: Английский
Продолжительность: 02:16:08
-Описание:
The 46th Annual American Music Awards (branded as the 2018 American Music Awards presented by YouTube Music for sponsorship reasons) were held on October 9, 2018, at the Microsoft Theater in Los Angeles, California. It aired live on ABC and was hosted by Tracee Ellis Ross. Cardi B and Drake led the list of nominations with eight mentions each.[1] Taylor Swift and Camila Cabello were the big winners, with four awards.
-Качество: HDTV
Разрешение видео/развертка: 59.940 fps
Формат файла: MKV
Видео кодек: H.264
Аудио кодек: MPEG 2
Видео: AVC | H.264 |1280x720p | ~13,0 mb/s | 59.940 fps progressive
Аудио: MPEG 2 | 48000 hz | 384 kb/s | stereo
-

Треклист - Main Show


Taylor Swift - I Did Something Bad
Twenty One Pilots - Jumpsuit
Mariah Carey - With You
Shawn Mendes & Zedd - Lost in Japan
Ella Mai - Boo'd Up
Cardi B & Bad Bunny,J Balvin - I Like It
Benny Blanco & Halsey,Khalida - Eastside
Post Malone & Ty Dolla $ign - Psycho & Better Now
Dua Lipa - Electricity & One Kiss
Jennifer Lopez - Limitless
Camila Cabello - Consequences
Ciara & Missy Elliott - Level Up & Dose
Carrie Underwood - Spinning Bottles
Panic At the Disco - Bohemian Rhapsody
Aretha Franklin tribute

Скриншоты

Отчёт MediaInfo

Format : MatroskaFormat version : Version 4 / Version 2File size : 12.2 GiBDuration : 2h 16mnOverall bit rate mode : VariableOverall bit rate : 12.9 MbpsEncoded date : UTC 2018-11-03 18:15:45Writing application : mkvmerge v8.5.2 ('Crosses') 32bitWriting library : libebml v1.3.3 + libmatroska v1.4.4
VideoID : 1Format : AVCFormat/Info : Advanced Video CodecFormat profile : Main@L4.0Format settings, CABAC : YesFormat settings, ReFrames : 4 framesFormat settings, GOP : M=3, N=30Codec ID : V_MPEG4/ISO/AVCDuration : 2h 16mnBit rate mode : VariableBit rate : 12.2 MbpsMaximum bit rate : 15.6 MbpsWidth : 1 280 pixelsHeight : 720 pixelsDisplay aspect ratio : 16:9Frame rate mode : ConstantFrame rate : 60.000 fpsOriginal frame rate : 59.940 fpsColor space : YUVChroma subsampling : 4:2:0Bit depth : 8 bitsScan type : ProgressiveBits/(Pixel*Frame) : 0.221Stream size : 11.6 GiB (95%)Default : YesForced : NoColor primaries : BT.709Transfer characteristics : BT.709Matrix coefficients : BT.709
AudioID : 2Format : MPEG AudioFormat version : Version 1Format profile : Layer 2Mode : Dual monoCodec ID : A_MPEG/L2Codec ID/Hint : MP2Duration : 2h 16mnBit rate mode : ConstantBit rate : 384 KbpsChannel(s) : 2 channelsSampling rate : 48.0 KHzCompression mode : LossyStream size : 374 MiB (3%)Language : EnglishDefault : YesForced : No


[torrentc.info]_t_5639541.torrent
Торрент: Зарегистрирован ·  [ 2018-11-06 15:05 ] ·  d6d2613c0a345639437b8290b10825d688a46815

62 KB

Статус: проверено
Скачан: 0 раз
Размер: 12.22 GB
Оценка: 
(Голосов: 0)
Сказали спасибо: 0  Спасибо
Похожие темы
[Профиль]    [ЛС]
Показать сообщения:    
Ответить на тему

Текущее время: Сегодня 00:37

Часовой пояс: GMT + 7



Вы не можете начинать темы
Вы не можете отвечать на сообщения
Вы не можете редактировать свои сообщения
Вы не можете удалять свои сообщения
Вы не можете голосовать в опросах
Вы не можете прикреплять файлы к сообщениям
Вы можете скачивать файлы