(Psychedelic | Indie Rock) [WEB] Magic Potion - Endless Graffiti - 2018, FLAC (tracks), lossless

Reply to topic
DL-List and Torrent activity [Update пиров]
Size:  211 MB   |    Registered:  1 year 3 months   |    Completed:  0 times

Seeder not seen: Never

 
   
 
 
 
Author Message

Мых

Post 06-Nov-2018 09:40

[Quote]



Magic Potion

Endless Graffiti





• Жанр: Psychedelic | Indie Rock
• Носитель: WEB
• Год издания: 2018
• Издатель:
PNKSLM Recordings
• Страна: Sweden
• Аудиокодек: FLAC (*.flac)
• Тип рипа: tracks
• Продолжительность: 00:37:51
• Источник (спасибо): NBMus
• WEB ссылка
• Наличие сканов: front

01 - Swoon (00:03:24)
02 - Shock Proof (00:03:08)
03 - See What Happens (00:03:43)
04 - Foamy Lace (00:03:56)
05 - Sleep Fuse (00:02:57)
06 - Light Speed (00:04:50)
07 - Soup (00:03:16)
08 - Rest Yr Skull (00:03:24)
09 - Lizard Spit (00:05:11)
10 - Be Around (00:03:57)

-
-

• Замер динамического диапазона •

foobar2000 1.3.17 / Замер динамического диапазона (DR) 1.1.1Дата отчёта: 2018-10-27 19:36:05
--------------------------------------------------------------------------------Анализ: Magic Potion / Endless Graffiti--------------------------------------------------------------------------------
DR Пики RMS Продолжительность трека--------------------------------------------------------------------------------DR8 -0.10 дБ -9.90 дБ 3:25 01-SwoonDR10 -0.10 дБ -11.79 дБ 3:09 02-Shock ProofDR9 -0.10 дБ -11.13 дБ 3:44 03-See What HappensDR9 -0.10 дБ -11.33 дБ 3:57 04-Foamy LaceDR8 -0.10 дБ -10.06 дБ 2:57 05-Sleep FuseDR8 -0.10 дБ -9.77 дБ 4:51 06-Light SpeedDR9 -0.10 дБ -11.15 дБ 3:17 07-SoupDR9 -0.10 дБ -11.52 дБ 3:24 08-Rest Yr SkullDR11 -0.10 дБ -13.15 дБ 5:12 09-Lizard SpitDR9 -0.10 дБ -11.57 дБ 3:58 10-Be Around--------------------------------------------------------------------------------
Количество треков: 10Реальные значения DR: DR9
Частота: 44100 ГцКаналов: 2Разрядность: 16Битрейт: 777 кбит/сКодек: FLAC================================================================================
-

• Лог проверки качества •

-----------------------
DON'T MODIFY THIS FILE
-----------------------
PERFORMER: auCDtect Task Manager, ver. 1.5.1RC3 build 1.5.1.4Copyright (c) 2008-2010 y-soft. All rights reservedhttp://y-soft.org
ANALYZER: auCDtect: CD records authenticity detector, version 0.8.2Copyright (c) 2004 Oleg Berngardt. All rights reserved.Copyright (c) 2004 Alexander Djourik. All rights reserved.
FILE: Endless Graffiti-10.flac Size: 23255871 Hash: 448EE282B0AC3885D523115A5BCB9D74 Accuracy: -m0 Conclusion: CDDA 100% Signature: CF5A413D1D3BDF2B4935CB53F7B5D6A928D0E4E4FILE: Endless Graffiti-09.flac Size: 29431263 Hash: CAA63FD5D45B422A0899D693D88196CB Accuracy: -m0 Conclusion: CDDA 100% Signature: 53E9FBAEB2BFB9E07C1448A4B6F774254523B1EBFILE: Endless Graffiti-08.flac Size: 20673197 Hash: 7714819ED75A716681348FB7680D2E13 Accuracy: -m0 Conclusion: CDDA 100% Signature: 4E906C9A2E25B9CCCE89DAA4F8E559A1B8B73C43FILE: Endless Graffiti-07.flac Size: 19370962 Hash: E43F4D071DCE5AE242392A029EFD9549 Accuracy: -m0 Conclusion: CDDA 99% Signature: E04FC7AACB3D14A2DA49F4C572B0A2C02A99D40FFILE: Endless Graffiti-06.flac Size: 29593186 Hash: E9056673FCE1393561B4B5CD47C714CB Accuracy: -m0 Conclusion: CDDA 100% Signature: 44D9104EE8F594F8BF1287D2ACB0B1135EC6B7DEFILE: Endless Graffiti-05.flac Size: 16930342 Hash: 502E5F96BF2B0EE2AAC3D8DF511B3D4C Accuracy: -m0 Conclusion: CDDA 99% Signature: C346927DC42319F6ADA4B736DAFED566DA6418E0FILE: Endless Graffiti-04.flac Size: 22670373 Hash: 9A4F24454B51EEECDE5949A4E73A8D7E Accuracy: -m0 Conclusion: CDDA 100% Signature: 70EA6D049039F0F6E8BFD2290AAC78568F0F296CFILE: Endless Graffiti-03.flac Size: 21715045 Hash: 01532AA6BC11143EAE3FC138E1D62D7E Accuracy: -m0 Conclusion: CDDA 100% Signature: F0D35081AF46601C568FFD6DF1396D8D9A6B1F87FILE: Endless Graffiti-02.flac Size: 18347452 Hash: E0B732F6FE2E18E60E53F9982DC174EE Accuracy: -m0 Conclusion: CDDA 100% Signature: 3F8774E6A957264E1F2B844F4AE93A5383B3BFC2FILE: Endless Graffiti-01.flac Size: 19610170 Hash: 1853CB03DBA6C050D0E8E1A328A628F6 Accuracy: -m0 Conclusion: CDDA 100% Signature: 0A5DA1E673554BDFB5C88E30BF065A9EF600B7D1
-


[geo-torrent.biz]_t_5637291.torrent
Torrent: Registered ·  [ 2018-11-06 09:40 ] ·  18e89a61c6b0368fef58445b86a56ab63c23c3d5

18 KB

Status: checked
Completed: 0 times
Size: 211 MB
Rating: 
(Votes: 0)
Say thanks: 0  Thanks
Похожие темы
[Profile]    [PM]
Display posts from previous:    
Reply to topic

The time now is: Today 08:06

All times are GMT + 7 Hours



You cannot post new topics in this forum
You cannot reply to topics in this forum
You cannot edit your posts in this forum
You cannot delete your posts in this forum
You cannot vote in polls in this forum
You cannot attach files in this forum
You can download files in this forum