[TR24][OF] Nolwenn Leroy - Folk - 2018 (French Pop)

Ответить на тему
Статистика раздачи [Обновить пиров]
Размер:  600 MB   |    Зарегистрирован:  8 дней   |    Скачан:  0 раз

Полного источника не было: Никогда

 
   
 
 
 
Автор Сообщение

torrentc.info

Создавать темы 05-Ноя-2018 19:37

[Цитировать]


Nolwenn Leroy

Folk



• Формат файла записи | Источник записи: [TR24][OF]
• Наличие водяных знаков: Нет
• Год издания релиза: 2018
• Жанр: French Pop
• Продолжительность: 00:50:31
• Источник, релизер: BNMus
• WEB 7digital
• Формат файла: FLAC (*.flac)
• Тип рипа: tracks
• Разрядность: 24/48
• Формат файла: WAV (flac.ape.wv)
• Количество каналов: 2.0
• Наличие сканов: front

01 - Je ne peux plus dire je t'aime (00:04:29)
02 - So Far Away From L.A (00:03:48)
03 - Diabolo menthe (00:03:20)
04 - Suzanne (00:04:05)
05 - Virages (00:03:08)
06 - Hollywood (00:04:57)
07 - Ma petite fille de reve (00:02:46)
08 - Je t’aimais je t’aime et je t’aimerai (00:06:35)
09 - On est comme on est (00:03:34)
10 - La Rua Madureira (00:04:03)
11 - Marions les roses (00:03:17)
12 - Jolie Louise (00:03:26)
13 - Sacre geranium (00:02:56)
-

• Замер динамического диапазона •

foobar2000 1.3.7 / Dynamic Range Meter 1.1.1log date: 2018-11-02 20:23:34
--------------------------------------------------------------------------------Analyzed: Nolwenn Leroy / Folk--------------------------------------------------------------------------------
DR Peak RMS Duration Track--------------------------------------------------------------------------------DR11 -0.21 dB -15.43 dB 4:29 01-Je ne peux plus dire je t'aimeDR8 -0.21 dB -9.89 dB 3:49 02-So Far Away From L.ADR8 -0.22 dB -10.20 dB 3:21 03-Diabolo mentheDR9 -0.23 dB -10.72 dB 4:05 04-SuzanneDR8 -0.22 dB -10.14 dB 3:09 05-ViragesDR9 -0.21 dB -12.33 dB 4:57 06-HollywoodDR8 -0.22 dB -9.49 dB 2:46 07-Ma petite fille de rêveDR11 -0.23 dB -14.00 dB 6:36 08-Je t’aimais je t’aime et je t’aimeraiDR9 -0.22 dB -12.23 dB 3:35 09-On est comme on estDR7 -0.21 dB -8.95 dB 4:04 10-La Rua MadureiraDR7 -0.22 dB -9.12 dB 3:17 11-Marions les rosesDR7 -0.21 dB -9.84 dB 3:27 12-Jolie LouiseDR9 -0.22 dB -11.25 dB 2:57 13-Sacré géranium--------------------------------------------------------------------------------
Number of tracks: 13Official DR value: DR9
Samplerate: 48000 HzChannels: 2Bits per sample: 24Bitrate: 1653 kbpsCodec: FLAC================================================================================
-


[torrentc.info]_t_5638699.torrent
Торрент: Зарегистрирован ·  [ 2018-11-05 19:36 ] ·  2b3bec856b4e5ceff7ac56bb1c8c7ec17f76e80e

13 KB

Статус: проверено
Скачан: 0 раз
Размер: 600 MB
Оценка: 
(Голосов: 0)
Сказали спасибо: 0  Спасибо
Похожие темы
[Профиль]    [ЛС]
Показать сообщения:    
Ответить на тему

Текущее время: Сегодня 12:23

Часовой пояс: GMT + 7



Вы не можете начинать темы
Вы не можете отвечать на сообщения
Вы не можете редактировать свои сообщения
Вы не можете удалять свои сообщения
Вы не можете голосовать в опросах
Вы не можете прикреплять файлы к сообщениям
Вы можете скачивать файлы