Мэнди / Mandy (Панос Косматос / Panos Cosmatos) [2018, США, ужасы, боевик, триллер, BDRip] Dub + Original (Eng) + Sub (Rus, Eng)

Ответить на тему
 
Автор Сообщение

torrentc.info

Создавать темы 03-Ноя-2018 03:52

[Цитировать]

Мэнди / Mandy-[img=right]https://i1.imageban.ru/out/2018/11/02/64429212cde24...f349f5.png[/img]
Год выхода: 2018
Выпущено: США, Бельгия, Великобритания
Жанр: ужасы, боевик, триллер
Продолжительность: 02:01:02
Перевод: Профессиональный (полное дублирование)
Субтитры: Русские (2 вида), Английские (полные, SDH, SDH-Colored) (внешние .srt*)
Оригинальная аудиодорожка: Английская-Режиссер:
Панос Косматос / Panos Cosmatos-В ролях:
Николас Кейдж (Red Miller), Андреа Райзборо (Mandy Bloom), Лайнас Роуч (Jeremiah Sand), Нед Деннехи (Brother Swan), Олуэн Фуэр (Mother Marlene), Ричард Брэйк (The Chemist), Билл Дьюк (Caruthers), Лайн Пийе (Sister Lucy), Клеман Баронне (Brother Klopek), Алексис Жюльмон (Brother Hanker)-О фильме:
1983 год. Дровосек Ред с подругой Мэнди мирно живёт в живописном лесу рядом с озером. Ничего удивительного, но в лесу поселилось зло — религиозный культ в компании с адской байкерской бандой. Как не вовремя пошла Мэнди прогуляться в лесу, где и приглянулась зловещему лидеру культа Иеремие. Тот приказывает байкерам похитить девушку, накачивает её наркотиками и предаёт ритуальному сожжению. И не оставляет выбора дровосеку Реду, кроме как встать на тропу мести.-
| | IMDB | КиноПоиск | Сэмпл |-Качество: BDRip [Mandy.2018.BluRay.1080p.AVC.DTS-HD.MA5.1-CHDBits]
Формат файла: AVI
Видео: 720x304 (2.37:1), 23.976 fps, XviD build 67 ~1808 kbps avg, 0.34 bit/pixel
Аудио #1: 48 kHz, AC3 Dolby Digital, 3/2 (L,C,R,l,r) + LFE ch, ~384.00 kbps avg (RUS)
Аудио #2: 48 kHz, AC3 Dolby Digital, 3/2 (L,C,R,l,r) + LFE ch, ~384.00 kbps avg (ENG)-
[img]https://i5.imageban.ru/thumbs/2018.11.02/8645b384c0dbb46fa77b16331bfee49a.jpg[/img]-[img]https://i2.imageban.ru/thumbs/2018.11.02/0625ebba1fd445221189527799a96dd2.jpg[/img][img]https://i1.imageban.ru/thumbs/2018.11.02/e86af6f3d01a2eb9a6007043789652e0.jpg[/img][img]https://i3.imageban.ru/thumbs/2018.11.02/36b29ab0112f2f706a12bef09c0ae4c7.jpg[/img][img]https://i1.imageban.ru/thumbs/2018.11.02/21f0092fa1ab33660e22e7baac26fc53.jpg[/img]MediaInfo">

Скриншоты[img]https://i5.imageban.ru/thumbs/2018.11.02/8645b384c0dbb46fa77b16331bfee49a.jpg[/img]-[img]https://i2.imageban.ru/thumbs/2018.11.02/0625ebba1fd445221189527799a96dd2.jpg[/img][img]https://i1.imageban.ru/thumbs/2018.11.02/e86af6f3d01a2eb9a6007043789652e0.jpg[/img][img]https://i3.imageban.ru/thumbs/2018.11.02/36b29ab0112f2f706a12bef09c0ae4c7.jpg[/img][img]https://i1.imageban.ru/thumbs/2018.11.02/21f0092fa1ab33660e22e7baac26fc53.jpg[/img]MediaInfo

Общее
Полное имя                               : D:\Mandy_2018_BDRip_by_Dalemake.avi
Формат файла                                   : AVI
Формат файла/Информация                        : Audio Video Interleave
Профиль формата                          : OpenDML
Размер файла                             : 2,18 Гбайт
Продолжительность                        : 2 ч. 1 м.
Общий поток                              : 2583 Кбит/сек
Программа кодирования                    : VirtualDubMod 1.5.10.3 | www.virtualdub-fr.org || (build 2550/release)
Библиотека кодирования                   : VirtualDubMod build 2550/release
Видео
Идентификатор                            : 0
Формат файла                                   : MPEG-4 Visual
Профиль формата                          : Advanced Simple@L5
Параметр BVOP формата                    : 2
Параметр QPel формата                    : Нет
Параметр GMC формата                     : Без точки перехода
Параметр матрицы формата                 : Выборочная
Идентификатор кодека                     : XVID
Идентификатор кодека/Подсказка           : XviD
Продолжительность                        : 2 ч. 1 м.
Битрейт                                  : 1797 Кбит/сек
Ширина                                   : 720 пикселей
Высота                                   : 304 пикселя
Соотношение сторон                       : 2,35:1
Частота кадров                           : 23,976 кадра/сек
Цветовое пространство                    : YUV
Субдискретизация насыщенности            : 4:2:0
Битовая глубина                          : 8 бит
Тип развёртки                            : Прогрессивная
Метод сжатия                             : С потерями
Бит/(Пиксели*Кадры)                      : 0.343
Размер потока                            : 1,52 Гбайт (70%)
Библиотека кодирования                   : XviD 67
Аудио #1
Идентификатор                            : 1
Формат файла                                   : AC-3
Формат файла/Информация                        : Audio Coding 3
Расширение режима                        : CM (complete main)
Параметр Endianness формата              : Big
Идентификатор кодека                     : 2000
Продолжительность                        : 2 ч. 1 м.
Вид битрейта                             : Постоянный
Битрейт                                  : 384 Кбит/сек
Каналы                                   : 6 каналов
Расположение каналов                     : Front: L C R, Side: L R, LFE
Частота                                  : 48,0 КГц
Битовая глубина                          : 16 бит
Метод сжатия                             : С потерями
Размер потока                            : 332 Мбайт (15%)
Выравнивание                             : Разделение по промежуткам
Продолжительность промежутка             : 42  мс. (1,00 видеокадр)
Время предзагрузки промежутка            : 500  мс.
Аудио #2
Идентификатор                            : 2
Формат файла                                   : AC-3
Формат файла/Информация                        : Audio Coding 3
Расширение режима                        : CM (complete main)
Параметр Endianness формата              : Big
Идентификатор кодека                     : 2000
Продолжительность                        : 2 ч. 1 м.
Вид битрейта                             : Постоянный
Битрейт                                  : 384 Кбит/сек
Каналы                                   : 6 каналов
Расположение каналов                     : Front: L C R, Side: L R, LFE
Частота                                  : 48,0 КГц
Битовая глубина                          : 16 бит
Метод сжатия                             : С потерями
Размер потока                            : 332 Мбайт (15%)
Выравнивание                             : Разделение по промежуткам
Продолжительность промежутка             : 42  мс. (1,00 видеокадр)
Время предзагрузки промежутка            : 500  мс.
-
[Профиль]    [ЛС]
Показать сообщения:    
Ответить на тему

Текущее время: Сегодня 12:06

Часовой пояс: GMT + 7



Вы не можете начинать темы
Вы не можете отвечать на сообщения
Вы не можете редактировать свои сообщения
Вы не можете удалять свои сообщения
Вы не можете голосовать в опросах
Вы не можете прикреплять файлы к сообщениям
Вы не можете скачивать файлы