Замуж за Бузову / Выпуски 8 из 8 [2018, Реалити-шоу, DVB]

Ответить на тему
Статистика раздачи [Обновить пиров]
Размер:  8.89 GB   |    Зарегистрирован:  11 дней   |    Скачан:  0 раз

Полного источника не было: Никогда

 
   
 
 
 
Автор Сообщение

torrentc.info

Создавать темы 02-Ноя-2018 23:27

[Цитировать]

Замуж за Бузову / Выпуски 8 из 8
Дата/Год выхода: 2018
Страна: Россия
Жанр: Реалити-шоу
Перевод: Не требуется
Оригинальная аудиодорожка: русский
Телеканал: ТНТ
Описание: «Замуж за Бузову» — это уникальное 8-ми серийное реалити-шоу о том, как Ольга Бузова ищет мужчину, с которым сможет создать семью. Аналогов новому проекту ТНТ нет, так же, как нет второй Ольги Бузовой! Ольга Бузова — self-made woman. Ее любят миллионы простых зрителей, о ней говорят топ-звезды, каждое событие ее жизни смакуется прессой. Она добилась невероятных успехов во многих областях и все, к чему она прикасается — становится индустрией. Она помогает строить любовь другим, но сама так и не обрела личное счастье. «Замуж за Бузову» — это последний шанс доказать Оле, что настоящие мужчины все-таки существуют, и один из них сможет сделать ее по-настоящему счастливой.
качество: DVB
формат: TS/M2TS
Аудио: MPEG Audio, 192 kb/s, 48000Hz 2ch

Скриншоты; Список выпусков;

Выпуск 1; 01:33:00; TS, H264, 720x576, 16:9, 1485 kb/s, 25fps

Выпуск 2; 01:32:00; TS, H264, 720x576, 16:9, 1747 kb/s, 25fps

Выпуск 3; 01:34:00; TS, H264, 720x576, 16:9, 1479 kb/s, 25fps

Выпуск 4; 01:30:00; TS, H264, 720x576, 16:9, 1539 kb/s, 25fps

Выпуск 5; 01:33:00; TS, H264, 720x576, 16:9, 1631 kb/s, 25fps

Выпуск 6; 01:12:00; TS, H264, 720x576, 16:9, 1659 kb/s, 25fps

Выпуск 7; 01:11:05; TS, H264, 720x576, 16:9, 1477 kb/s, 25fps

Выпуск 8; 01:06:11; TS, H264, 720x576, 16:9, 1843 kb/s, 25fps

MediaInfo

Общее
Идентификатор : 1 (0x1)
Полное имя : E:\Замуж за Бузову\Замуж за Бузову - Выпуск 1.ts
Формат файла : MPEG-TS
Размер файла : 1,16 Гбайт
Продолжительность : 1 ч. 33 м.
Режим общего битрейта : Переменный
Общий поток : 1766 Кбит/сек
Видео
Идентификатор : 5106 (0x13F2)
Идентификатор меню : 1 (0x1)
Формат файла : AVC
Формат файла/Информация : Advanced Video Codec
Профиль формата : High@L3
Настройки формата : CABAC / 4 Ref Frames
Параметр CABAC формата : Да
Параметр RefFrames формата : 4 кадра
Идентификатор кодека : 27
Продолжительность : 1 ч. 33 м.
Битрейт : 1485 Кбит/сек
Ширина : 720 пикселей
Высота : 576 пикселей
Соотношение сторон : 16:9
Частота кадров : 25,000 кадров/сек
Стандарт вещания : Component
Цветовое пространство : YUV
Субдискретизация насыщенности : 4:2:0
Битовая глубина : 8 бит
Тип развёртки : Чересстрочная
Метод сохранения типа развёртки : Раздельные поля
Порядок развёртки : Верхнее поле первое
Бит/(Пиксели*Кадры) : 0.143
Размер потока : 994 Мбайт (84%)
Цветовой диапазон : Limited
Основные цвета : BT.601 PAL
Характеристики трансфера : BT.470 System B/G
Коэффициенты матрицы : BT.470 System B/G
Аудио
Идентификатор : 5107 (0x13F3)
Идентификатор меню : 1 (0x1)
Формат файла : MPEG Audio
Версия формата : Version 1
Профиль формата : Layer 2
Идентификатор кодека : 3
Продолжительность : 1 ч. 33 м.
Вид битрейта : Постоянный
Битрейт : 192 Кбит/сек
Каналы : 2 канала
Частота : 48,0 КГц
Частота кадров : 41,667 кадра/сек (1152 SPF)
Метод сжатия : С потерями
Размер потока : 129 Мбайт (11%)
Язык : English


[torrentc.info]_t_5605686.torrent
Торрент: Зарегистрирован ·  [ 2018-11-02 23:27 ] ·  5b41ba21bbd5053503aee6f32ce02fdb67f6efe0

23 KB

Статус: проверено
Скачан: 0 раз
Размер: 8.89 GB
Оценка: 
(Голосов: 0)
Сказали спасибо: 0  Спасибо
Похожие темы
[Профиль]    [ЛС]
Показать сообщения:    
Ответить на тему

Текущее время: Сегодня 16:32

Часовой пояс: GMT + 7



Вы не можете начинать темы
Вы не можете отвечать на сообщения
Вы не можете редактировать свои сообщения
Вы не можете удалять свои сообщения
Вы не можете голосовать в опросах
Вы не можете прикреплять файлы к сообщениям
Вы можете скачивать файлы