(Ethnic) [CD] VA - Ethno Jazz: European Perspective (Приложение #88 к журналу Stereo & Video S&V#08\'2005) - 2005, FLAC (image+.cue), lossless

Ответить на тему
Статистика раздачи [Обновить пиров]
Размер:  347 MB   |    Зарегистрирован:  18 дней   |    Скачан:  0 раз

Полного источника не было: Никогда

 
   
 
 
 
Автор Сообщение

torrentc.info

Создавать темы 29-Окт-2018 20:15

[Цитировать]

Ethno Jazz: European Perspective
(Приложение #88 к журналу Stereo & Video S&V#08'2005)
Жанр: Ethnic
Носитель: CD
Страна-производитель диска (релиза): Russia
Год издания: 2005
Аудиокодек: FLAC (*.flac)
Тип рипа: image+.cue
Битрейт аудио: lossless
Продолжительность: 1:00:45
Источник (релизер): freeman40111
Наличие сканов в содержимом раздачи: да (только диск)
Треклист:
01 – Аркадий Шилклопер - Step By Step
02 – Алекс Ростоцкий - Звонили Звоны в Новгороде
03 – Mark Alban Lotz, Shango's Dance - Shangj's Cloth
04 – ManSound - Триптик Украинских Песен
05 – Tsiganov Brothers Feat. Alex Sipiagin - She Lives In Brazil
06 – Seazone Project -The Norning
07 – Маримба Плюс - Zebrano
08 – Екатерина Черноусова И Комнаты - Elohim
09 – Лот Лориен, Теодосий Спасов - Капитан Петко Воевода
10 – Энвер Измайлов - Ct Funk

Лог создания рипа

Exact Audio Copy V1.3 from 2. September 2016
Отчёт EAC об извлечении, выполненном 28. октября 2018, 15:05
- / Ethno Jazz: European Perspective
Дисковод: TSSTcorpCDDVDW SH-224DB Adapter: 1 ID: 0
Режим чтения : ДостоверностьИспользование точного потока : ДаОтключение кэша аудио : ДаИспользование указателей C2 : Нет
Коррекция смещения при чтении : 6Способность читать области Lead-in и Lead-out : НетЗаполнение пропущенных сэмплов тишиной : ДаУдаление блоков с тишиной в начале и конце : НетПри вычислениях CRC использовались нулевые сэмплы : ДаИнтерфейс : Встроенный Win32-интерфейс для Win NT/2000
Выходной формат : Пользовательский кодировщикВыбранный битрейт : 896 kBit/sКачество : ВысокийДобавление ID3-тега : НетУтилита сжатия : C:\Program Files (x86)\Exact Audio Copy\Flac\flac.exeДополнительные параметры : -V -8 -T "Date=%year%" -T "Genre=%genre%" %source%
TOC извлечённого CD
Трек | Старт | Длительность | Начальный сектор | Конечный сектор --------------------------------------------------------------------- 1 | 0:01.00 | 5:34.30 | 75 | 25154 2 | 5:35.30 | 7:01.49 | 25155 | 56778 3 | 12:37.04 | 5:10.04 | 56779 | 80032 4 | 17:47.08 | 4:56.57 | 80033 | 102289 5 | 22:43.65 | 6:07.49 | 102290 | 129863 6 | 28:51.39 | 3:22.35 | 129864 | 145048 7 | 32:13.74 | 6:56.46 | 145049 | 176294 8 | 39:10.45 | 6:35.30 | 176295 | 205949 9 | 45:46.00 | 7:57.07 | 205950 | 241731 10 | 53:43.07 | 7:02.44 | 241732 | 273425
Характеристики диапазона извлечения и сообщения об ошибках
Выбранный диапазон
Имя файла C:\temp\1\Ethno Jazz- European Perspective.wav
Пиковый уровень 100.0 % Скорость извлечения 2.4 X Качество диапазона 99.9 % CRC теста 886955D0 CRC копии 886955D0 Копирование... OK
Ошибок не произошло
AccurateRip: сводка
Трек 1 : извлечено точно (доверие 1) [3293C449] (AR v2)Трек 2 : извлечено точно (доверие 1) [771DE0E8] (AR v2)Трек 3 : извлечено точно (доверие 1) [E20E992C] (AR v2)Трек 4 : извлечено точно (доверие 1) [9D49E634] (AR v2)Трек 5 : извлечено точно (доверие 1) [54123095] (AR v2)Трек 6 : извлечено точно (доверие 1) [A5906CA0] (AR v2)Трек 7 : извлечено точно (доверие 1) [90F165E7] (AR v2)Трек 8 : извлечено точно (доверие 1) [3E7709A7] (AR v2)Трек 9 : извлечено точно (доверие 1) [21472FE6] (AR v2)Трек 10 : извлечено точно (доверие 1) [9CE663C5] (AR v2)
Все треки извлечены точно
Конец отчёта
==== Контрольная сумма отчёта A427C42C63F4C5350912B76CEDA3B4ED970341512081BE718C0A53B220FD0A61 ====

Содержание индексной карты (.CUE)

REM GENRE EthnicREM DATE 2005REM DISCID 910E3C0AREM COMMENT "ExactAudioCopy v1.3"PERFORMER "Various Artists"TITLE "Ethno Jazz: European Perspective"REM COMPOSER ""FILE "Ethno Jazz- European Perspective.flac" WAVE TRACK 01 AUDIO TITLE "Step By Step" PERFORMER "Arkady Shilkloper" REM COMPOSER "" FLAGS DCP INDEX 00 00:00:00 INDEX 01 00:01:00 TRACK 02 AUDIO TITLE "The Bells Rang in Novgorod" PERFORMER "Alex Rostotsky" REM COMPOSER "" FLAGS DCP INDEX 00 05:32:30 INDEX 01 05:35:30 TRACK 03 AUDIO TITLE "Chango's Cloth" PERFORMER "Mark Lotz & Shango's Dance" REM COMPOSER "" FLAGS DCP INDEX 00 12:34:04 INDEX 01 12:37:04 TRACK 04 AUDIO TITLE "Triptych (Medley of Ukrainian Folk Songs)" PERFORMER "ManSound" REM COMPOSER "" FLAGS DCP INDEX 00 17:44:08 INDEX 01 17:47:08 TRACK 05 AUDIO TITLE "She Lives In Brazil" PERFORMER "Tsiganov Brothers feat. Alex Sipiagin" REM COMPOSER "" FLAGS DCP INDEX 00 22:40:65 INDEX 01 22:43:65 TRACK 06 AUDIO TITLE "The Morning" PERFORMER "SeaZone Project" REM COMPOSER "" FLAGS DCP INDEX 00 28:48:39 INDEX 01 28:51:39 TRACK 07 AUDIO TITLE "Zebrano" PERFORMER "Marimba Plus" REM COMPOSER "" FLAGS DCP INDEX 00 32:10:74 INDEX 01 32:13:74 TRACK 08 AUDIO TITLE "Elohim" PERFORMER "Ekaterina Chernousova & Rooms" REM COMPOSER "" FLAGS DCP INDEX 00 39:07:45 INDEX 01 39:10:45 TRACK 09 AUDIO TITLE "Captain Petko Voevode" PERFORMER "Lot Lorien & Theodosii Spassov" REM COMPOSER "" FLAGS DCP INDEX 00 45:43:00 INDEX 01 45:46:00 TRACK 10 AUDIO TITLE "CT Funk" PERFORMER "Enver Izmailov" REM COMPOSER "" FLAGS DCP INDEX 00 53:40:07 INDEX 01 53:43:07


[torrentc.info]_t_5635911.torrent
Торрент: Зарегистрирован ·  [ 2018-10-29 20:12 ] ·  c0373295d27bba92dc31cb847d379a688111628b

28 KB

Статус: проверено
Скачан: 0 раз
Размер: 347 MB
Оценка: 
(Голосов: 0)
Сказали спасибо: 0  Спасибо
Похожие темы
[Профиль]    [ЛС]
Показать сообщения:    
Ответить на тему

Текущее время: Сегодня 23:05

Часовой пояс: GMT + 7



Вы не можете начинать темы
Вы не можете отвечать на сообщения
Вы не можете редактировать свои сообщения
Вы не можете удалять свои сообщения
Вы не можете голосовать в опросах
Вы не можете прикреплять файлы к сообщениям
Вы можете скачивать файлы