Северная Корея: Темные тайны / North Korea: Dark Secrets (Джон Верхофф / John Verhoff) [2018, Документальный, политика, история, HDTV 1080i] DUB + Original Eng

Ответить на тему
Статистика раздачи [Обновить пиров]
Размер:  4.79 GB   |    Зарегистрирован:  17 дней   |    Скачан:  0 раз

Полного источника не было: Никогда

 
   
 
 
 
Автор Сообщение

torrentc.info

Создавать темы 27-Окт-2018 20:31

[Цитировать]

Северная Корея: Темные тайны / North Korea: Dark Secrets
Страна: США
Студия: A&E Television Networks
Жанр: Документальный, политика, история
Год выхода: 2018
Продолжительность: 01:23:56
Перевод: Профессиональный (дублированный)
Субтитры: нет
Оригинальная аудиодорожка: Английский
Режиссёр: Джон Верхофф / John Verhoff
Описание: О сложной истории, радикальной политике и жестких социальных стандартах которые создали наследие внутреннего угнетения и внешней агрессии в одной из самых закрытых стран мира: Северной Кореи. Северокорейский народ на протяжении трех поколений правления режима Кимов, страдал от голода, в трудовых лагерях и публичных казней. Неустанно преследуя ядерные амбиции, правительство Северной Кореи действует как преступный синдикат, используя поддельные деньги, наркотики и кибер-шпионаж для финансирования своей военной машины. Фильм показывает сложную историю, экстремальную политику и устаревшие социальные нормы, которые открыли путь для внутреннего угнетения и внешней агрессии Северной Кореи.
Доп. информация:
Автор релиза - [img]https://img11.lostpic.net/2018/07/24/6c16c23c27890c...8129c8.gif[/img]
Источник: Torrentc - HDTV TS 1080i - моя запись с канала History HD
Документальный дубляж:
Голос рассказчика - полный дубляж
Интервью - слышна оригинальная речь
Сэмпл: http://multi-up.com/1210507

Рекламы нет!
Качество видео: HDTV 1080i
Формат файла: TS
Видео: MPEG-4, 1920x1080 (16:9), 25.000 fps, 7377 kbps, 0.142 bit/pixel
Аудио 1: Русский MP2, 48000 Гц, 2ch, 192 kbps
Аудио 2: Английский MP2, 48000 Гц, 2ch, 192 kbps

MediaInfo

ОбщееИдентификатор : 1 (0x1)Полное имя : D:\North.Korea.Dark.Secrets.2018.HDTV.1080i-ylnian.tsФормат файла : MPEG-TSРазмер файла : 4,79 ГбайтПродолжительность : 1 ч. 23 м.Режим общего битрейта : ПеременныйОбщий поток : 8169 Кбит/сек
ВидеоИдентификатор : 304 (0x130)Идентификатор меню : 26004 (0x6594)Формат файла : AVCФормат файла/Информация : Advanced Video CodecПрофиль формата : High@L4Настройки формата : CABAC / 4 Ref FramesПараметр CABAC формата : ДаПараметр RefFrames формата : 4 кадраИдентификатор кодека : 27Продолжительность : 1 ч. 23 м.Битрейт : 7377 Кбит/секШирина : 1920 пикселейВысота : 1080 пикселейСоотношение сторон : 16:9Частота кадров : 25,000 кадров/секСтандарт вещания : ComponentЦветовое пространство : YUVСубдискретизация насыщенности : 4:2:0Битовая глубина : 8 битТип развёртки : ЧересстрочнаяМетод сохранения типа развёртки : Раздельные поляПорядок развёртки : Верхнее поле первоеБит/(Пиксели*Кадры) : 0.142Размер потока : 4,33 Гбайт (90%)Цветовой диапазон : LimitedОсновные цвета : BT.709Характеристики трансфера : BT.709Коэффициенты матрицы : BT.709
Аудио #1Идентификатор : 404 (0x194)Идентификатор меню : 26004 (0x6594)Формат файла : MPEG AudioВерсия формата : Version 1Профиль формата : Layer 2Идентификатор кодека : 3Продолжительность : 1 ч. 23 м.Вид битрейта : ПостоянныйБитрейт : 192 Кбит/секКаналы : 2 каналаЧастота : 48,0 КГцЧастота кадров : 41,667 кадра/сек (1152 SPF)Метод сжатия : С потерямиРазмер потока : 115 Мбайт (2%)Язык : Russian
Аудио #2Идентификатор : 424 (0x1A8)Идентификатор меню : 26004 (0x6594)Формат файла : MPEG AudioВерсия формата : Version 1Профиль формата : Layer 2Идентификатор кодека : 3Продолжительность : 1 ч. 23 м.Вид битрейта : ПостоянныйБитрейт : 192 Кбит/секКаналы : 2 каналаЧастота : 48,0 КГцЧастота кадров : 41,667 кадра/сек (1152 SPF)Метод сжатия : С потерямиРазмер потока : 115 Мбайт (2%)Язык : English


[torrentc.info]_t_5621892.torrent
Торрент: Зарегистрирован ·  [ 2018-10-27 20:30 ] ·  9754102ae15750fe08b1c651e5aa244b1011a138

24 KB

Статус: проверено
Скачан: 0 раз
Размер: 4.79 GB
Оценка: 
(Голосов: 0)
Сказали спасибо: 0  Спасибо
Похожие темы
[Профиль]    [ЛС]
Показать сообщения:    
Ответить на тему

Текущее время: Сегодня 16:35

Часовой пояс: GMT + 7



Вы не можете начинать темы
Вы не можете отвечать на сообщения
Вы не можете редактировать свои сообщения
Вы не можете удалять свои сообщения
Вы не можете голосовать в опросах
Вы не можете прикреплять файлы к сообщениям
Вы можете скачивать файлы