Ясь и Малгося. Сказка для взрослых / Jas\' i Malgosia. Bajka dla dojrzatych (Анджей Чечот / Andrzej Czeczot) [1996, Польша, мультфильм, чёрный юмор, SATRip]

Ответить на тему
Статистика раздачи [Обновить пиров]
Размер:  33 MB   |    Зарегистрирован:  17 дней   |    Скачан:  0 раз

Полного источника не было: Никогда

 
   
 
 
 
Автор Сообщение

torrentc.info

Создавать темы 27-Окт-2018 20:31

[Цитировать]

[img=right]https://b.radikal.ru/b04/1810/99/8280888a8851.jpg[/img]
Ясь и Малгося. Сказка для взрослых / Jas' i Malgosia. Bajka dla dojrzatych
Страна: Польша
Жанр: мультфильм, чёрный юмор
Продолжительность: 00:03:57
Год выхода: 1996
Перевод: не требуется
Русские субтитры: нет
Режиссёр: Анджей Чечот / Andrzej Czeczot
Описание: "Ясь и Малгося" - польский вариант сказки "Гензель и Гретель". А вариант, который предлагает Анджей Чечот, отличается ещё и особым цинизмом, и ни в коем случае не рекомендуется к просмотру детям.
Доп. информация: Перевод финальной фразы: "Задумайтесь на минуту о том, как печальна сиротская доля!"
[img]https://c.radikal.ru/c10/1810/39/453bc39c28f0.png[/img]
Качество: SATRip
Формат файла: AVI
Видео: 1018 kbps, 608х464 (4:3), 25.000 fps, MPEG-4 Visual (XviD)
Аудио: 128 kbps, 44.1 kHz, 2 channels, MPEG Audio (MP3)
Субтитры: отсутствуют

Подробные технические данные

GeneralComplete name : Jas' i Malgosia (1996).aviFormat : AVIFormat/Info : Audio Video InterleaveFile size : 32.7 MiBDuration : 3mn 57sOverall bit rate : 1 156 KbpsWriting application : VirtualDubMod 1.5.10.2 (build 2540/release)Writing library : VirtualDub build 35491/release
VideoID : 0Format : MPEG-4 VisualFormat profile : Advanced Simple@L4Format settings, BVOP : 2Format settings, QPel : NoFormat settings, GMC : No warppointsFormat settings, Matrix : Default (H.263)Codec ID : XVIDCodec ID/Hint : XviDDuration : 3mn 57sBit rate : 1 018 KbpsWidth : 608 pixelsHeight : 464 pixelsDisplay aspect ratio : 4:3Frame rate : 25.000 fpsColor space : YUVChroma subsampling : 4:2:0Bit depth : 8 bitsScan type : ProgressiveCompression mode : LossyBits/(Pixel*Frame) : 0.144Stream size : 28.8 MiB (88%)Writing library : XviD 73
AudioID : 1Format : MPEG AudioFormat version : Version 1Format profile : Layer 3Codec ID : 55Codec ID/Hint : MP3Duration : 3mn 57sBit rate mode : ConstantBit rate : 128 KbpsChannel(s) : 2 channelsSampling rate : 44.1 KHzCompression mode : LossyDelay relative to video : 7msStream size : 3.62 MiB (11%)Alignment : Split accross interleavesInterleave, duration : 40 ms (1.00 video frame)Interleave, preload duration : 500 ms


[torrentc.info]_t_5634758.torrent
Торрент: Зарегистрирован ·  [ 2018-10-27 20:30 ] ·  dcb6c48f29baa0a45cb228ce120b117a24acf79d

11 KB

Статус: проверено
Скачан: 0 раз
Размер: 33 MB
Оценка: 
(Голосов: 0)
Сказали спасибо: 0  Спасибо
Похожие темы
[Профиль]    [ЛС]
Показать сообщения:    
Ответить на тему

Текущее время: Сегодня 11:48

Часовой пояс: GMT + 7



Вы не можете начинать темы
Вы не можете отвечать на сообщения
Вы не можете редактировать свои сообщения
Вы не можете удалять свои сообщения
Вы не можете голосовать в опросах
Вы не можете прикреплять файлы к сообщениям
Вы можете скачивать файлы