(Indie Rock) [WEB] The Rubens - LO LA RU - 2018, FLAC (tracks), lossless

Ответить на тему
Статистика раздачи [Обновить пиров]
Размер:  262 MB   |    Зарегистрирован:  28 дней   |    Скачан:  0 раз

Полного источника не было: Никогда

 
   
 
 
 
Автор Сообщение

torrentc.info

Создавать темы 23-Окт-2018 13:04

[Цитировать]



The Rubens

LO LA RU





• Жанр: Indie Rock
• Носитель: WEB
• Год издания: 2018
• Страна: Australia
• Аудиокодек: FLAC (*.flac)
• Тип рипа: tracks
• Продолжительность: 00:43:29
• Источник (спасибо): NBMus
• WEB ссылка
• Наличие сканов: front

01 - Million Man (00:03:12)
02 - Go On (00:02:44)
03 - I Know (00:03:52)
04 - Never Ever (feat. Sarah) (00:03:19)
05 - Freakout (00:03:22)
06 - God Forgot (00:03:32)
07 - Woman Oh Woman (00:03:43)
08 - Casper (00:03:01)
09 - SOSO (00:02:32)
10 - Mary (00:03:12)
11 - Teeth (00:03:28)
12 - All My Dollars (00:07:27)

-
-

• Замер динамического диапазона •

foobar2000 1.3.9 / Замер динамического диапазона (DR) 1.1.1Дата отчёта: 2018-10-03 13:01:19
--------------------------------------------------------------------------------Анализ: The Rubens, Sarah / LO LA RU (1) The Rubens / LO LA RU (2-12)--------------------------------------------------------------------------------
DR Пики RMS Продолжительность трека--------------------------------------------------------------------------------DR5 -0.10 дБ -8.49 дБ 3:20 04-Never Ever (feat. Sarah)DR5 -0.10 дБ -7.78 дБ 3:12 01-Million ManDR6 -0.10 дБ -7.34 дБ 2:44 02-Go OnDR5 -0.10 дБ -6.26 дБ 3:52 03-I KnowDR7 -0.10 дБ -9.11 дБ 3:23 05-FreakoutDR5 -0.10 дБ -7.75 дБ 3:32 06-God ForgotDR5 -0.10 дБ -6.16 дБ 3:44 07-Woman Oh WomanDR6 -0.10 дБ -7.38 дБ 3:01 08-CasperDR6 -0.10 дБ -7.48 дБ 2:33 09-SOSODR6 -0.10 дБ -8.28 дБ 3:13 10-MaryDR6 -0.10 дБ -9.01 дБ 3:28 11-TeethDR6 -0.10 дБ -8.74 дБ 7:27 12-All My Dollars--------------------------------------------------------------------------------
Количество треков: 12Реальные значения DR: DR6
Частота: 44100 ГцКаналов: 2Разрядность: 16Битрейт: 801 кбит/сКодек: FLAC================================================================================
-

• Лог проверки качества •

-----------------------
DON'T MODIFY THIS FILE
-----------------------
PERFORMER: auCDtect Task Manager, ver. 1.5.1RC3 build 1.5.1.4Copyright (c) 2008-2010 y-soft. All rights reservedhttp://y-soft.org
ANALYZER: auCDtect: CD records authenticity detector, version 0.8.2Copyright (c) 2004 Oleg Berngardt. All rights reserved.Copyright (c) 2004 Alexander Djourik. All rights reserved.
FILE: 12 - All my dollars.flac Size: 44760824 Hash: A93CB935C653D7F3170A47F9EAFA0E93 Accuracy: -m0 Conclusion: CDDA 100% Signature: 137318B69EDD6074360556999F49248367E084E6FILE: 11 - Teeth.flac Size: 20962169 Hash: A4D37104B94A30397A5F64CA1DB94498 Accuracy: -m0 Conclusion: CDDA 100% Signature: B32A914954180A8501E3EF13F6793C2DF109CD0CFILE: 10 - Mary.flac Size: 19517326 Hash: 9BB75CCDECAD3FB23C0246384A694BEA Accuracy: -m0 Conclusion: CDDA 100% Signature: 71E4B9020DE4A3B0C001760F6113D1B4FCB5BC0CFILE: 09 - Soso.flac Size: 16343958 Hash: 046D179D04FD4F69CC9F5C92CD81F6AC Accuracy: -m0 Conclusion: CDDA 100% Signature: 7E24480E3F6C069104AE6C8B68A6EE4B3C639C6AFILE: 08 - Casper.flac Size: 19425044 Hash: 80EE80043D1B5E2195BB1207F26071DC Accuracy: -m0 Conclusion: CDDA 100% Signature: 3C5059C8E404036F7921AE3CC4FEEB6BF98646DCFILE: 07 - Woman Oh Woman.flac Size: 25385626 Hash: 20DA20196349FB34EB4114CBF45A16C0 Accuracy: -m0 Conclusion: CDDA 100% Signature: 202924AACC1BCD0D008376AC6A1FAEE62F9CB05CFILE: 06 - God Forgot.flac Size: 22113047 Hash: 6C8A4142E8CC9DE0CC3EFEA130F393B6 Accuracy: -m0 Conclusion: CDDA 100% Signature: 977A62589AE3F4D61FD52C1BA08131A8E1BC2E19FILE: 05 - Freakout.flac Size: 21063540 Hash: 7B4928863288EEBC4CB65CA7D8A1C514 Accuracy: -m0 Conclusion: CDDA 100% Signature: 3DB5D932AEEC9FB2E3D8D9E42981587C3DB255CBFILE: 04 - Never Ever (Feat. Sarah).flac Size: 20301916 Hash: B5461575D1C6A78BDCF690FA36C0CB27 Accuracy: -m0 Conclusion: CDDA 100% Signature: 2522C3ABB0394FA1F9C0C97BE0CAE9AA2908DB1DFILE: 03 - I Know.flac Size: 24112394 Hash: D6183FC7815A57EFD11855AB48251F12 Accuracy: -m0 Conclusion: CDDA 100% Signature: 887D25A70D3DC90EEC3A1359DA2C936D6464E030FILE: 02 - Go On.flac Size: 18049782 Hash: 15F27AD607C6B9F4CB48EFFA1180973D Accuracy: -m0 Conclusion: CDDA 100% Signature: 099527A959896BBB84E4F627E710876BF254776AFILE: 01 - Million Man.flac Size: 20466531 Hash: F04D3DACCEBC848FEC3AB67C5069EA50 Accuracy: -m0 Conclusion: CDDA 100% Signature: 3DD37375F26EB8CCC5EDF7E9B1FE8B9F3F778392
-[img]https://i99.fastpic.ru/big/2018/0823/1a/83f981cfd9a...88d71a.png[/img]


[torrentc.info]_t_5632753.torrent
Торрент: Зарегистрирован ·  [ 2018-10-23 13:04 ] ·  28a3aedef7a047f43e9071ae7870f3971805e600

11 KB

Статус: проверено
Скачан: 0 раз
Размер: 262 MB
Оценка: 
(Голосов: 0)
Сказали спасибо: 0  Спасибо
Похожие темы
[Профиль]    [ЛС]
Показать сообщения:    
Ответить на тему

Текущее время: Сегодня 15:10

Часовой пояс: GMT + 7



Вы не можете начинать темы
Вы не можете отвечать на сообщения
Вы не можете редактировать свои сообщения
Вы не можете удалять свои сообщения
Вы не можете голосовать в опросах
Вы не можете прикреплять файлы к сообщениям
Вы можете скачивать файлы