(Post-Rock) Blueneck - Дискография (10 releases), 2005-2017, FLAC (image+.cue / tracks+.cue / tracks), lossless

Ответить на тему
Статистика раздачи [Обновить пиров]
Размер:  2.11 GB   |    Зарегистрирован:  28 дней   |    Скачан:  0 раз

Полного источника не было: Никогда

 
   
 
 
 
Автор Сообщение

torrentc.info

Создавать темы 23-Окт-2018 12:53

[Цитировать]

Blueneck Жанр: Post-Rock
Год издания: 2005-2017
Страна: UK
Битрейт аудио: lossless
Продолжительность: 06:40:53
Наличие сканов в содержимом раздачи: частично

2005 - Scars Of The Midwest (46:24)

Страна-производитель диска: UK
Издатель (лейбл): Don't Touch
Номер по каталогу: doto006
Аудиокодек: FLAC (*.flac)
Тип рипа: tracks+.cue
Источник (релизер): Torrentc (stanemte)
Треклист:
01. The Hills Have Eyes [01:13]
02. Judas! Judas! [05:04]
03. Oig [06:05]
04. Le:465 [05:59]
05. ub1 [04:46]
06. Epiphany [07:45]
07. ub2 [06:01]
08. Amok [05:16]
09. Yesterdays Forgotten [04:19]

Отчёт EAC

EAC extraction logfile from 5. August 2007, 14:21 for CDBlueneck / Scars Of The Midwest
Used drive : HL-DT-STDVDRAM GSA-H10N Adapter: 1 ID: 0Read mode : Secure with NO C2, accurate stream, disable cacheRead offset correction : 667Overread into Lead-In and Lead-Out : No
Used output format : C:\Program Files\FLAC\flac.exe (User Defined Encoder) 256 kBit/s Additional command line options : -V -8 -T "artist=%a" -T "title=%t" -T "album=%g" -T "date=%y" -T "tracknumber=%n" -T "genre=%m" %s
Other options : Fill up missing offset samples with silence : Yes Delete leading and trailing silent blocks : No Native Win32 interface for Win NT & 2000
Track 1 Filename D:\Musique\FLAC\Blueneck - Scars Of The Midwest (2005) [FLAC]\01 - The Hills Have Eyes.wav
Pre-gap length 0:00:02.00
Peak level 99.9 % Track quality 100.0 % Test CRC 96CD3D67 Copy CRC 96CD3D67 Copy OK
Track 2 Filename D:\Musique\FLAC\Blueneck - Scars Of The Midwest (2005) [FLAC]\02 - Judas! Judas!.wav
Peak level 99.9 % Track quality 100.0 % Test CRC 3D648F9D Copy CRC 3D648F9D Copy OK
Track 3 Filename D:\Musique\FLAC\Blueneck - Scars Of The Midwest (2005) [FLAC]\03 - Oig.wav
Pre-gap length 0:00:00.02
Peak level 99.9 % Track quality 99.9 % Test CRC E24B0BC5 Copy CRC E24B0BC5 Copy OK
Track 4 Filename D:\Musique\FLAC\Blueneck - Scars Of The Midwest (2005) [FLAC]\04 - Le-465.wav
Peak level 99.9 % Track quality 100.0 % Test CRC B1E9BDE0 Copy CRC B1E9BDE0 Copy OK
Track 5 Filename D:\Musique\FLAC\Blueneck - Scars Of The Midwest (2005) [FLAC]\05 - ub1.wav
Peak level 99.9 % Track quality 100.0 % Test CRC 03D932BD Copy CRC 03D932BD Copy OK
Track 6 Filename D:\Musique\FLAC\Blueneck - Scars Of The Midwest (2005) [FLAC]\06 - Epiphany.wav
Peak level 99.9 % Track quality 100.0 % Test CRC 12417619 Copy CRC 12417619 Copy OK
Track 7 Filename D:\Musique\FLAC\Blueneck - Scars Of The Midwest (2005) [FLAC]\07 - ub2.wav
Peak level 99.9 % Track quality 99.9 % Test CRC 4B6A69C2 Copy CRC 4B6A69C2 Copy OK
Track 8 Filename D:\Musique\FLAC\Blueneck - Scars Of The Midwest (2005) [FLAC]\08 - Amok.wav
Peak level 89.7 % Track quality 100.0 % Test CRC 3BFC9A3A Copy CRC 3BFC9A3A Copy OK
Track 9 Filename D:\Musique\FLAC\Blueneck - Scars Of The Midwest (2005) [FLAC]\09 - Yesterdays Forgotten.wav
Pre-gap length 0:00:00.04
Peak level 99.9 % Track quality 100.0 % Test CRC C5C6309A Copy CRC C5C6309A Copy OK
No errors occured
End of status report

CUE

REM GENRE Instrumental
REM DATE 2005
REM DISCID 660ADF09
REM COMMENT "ExactAudioCopy v0.95b3"
PERFORMER "Blueneck"
TITLE "Scars of the Midwest"
FILE "01 - The Hills Have Eyes.wav" WAVE
TRACK 01 AUDIO
TITLE "The Hills Have Eyes"
PERFORMER "Blueneck"
INDEX 01 00:00:00
FILE "02 - Judas! Judas!.wav" WAVE
TRACK 02 AUDIO
TITLE "Judas! Judas!"
PERFORMER "Blueneck"
INDEX 01 00:00:00
TRACK 03 AUDIO
TITLE "Oig"
PERFORMER "Blueneck"
INDEX 00 05:03:52
FILE "03 - Oig.wav" WAVE
INDEX 01 00:00:00
FILE "04 - Le-465.wav" WAVE
TRACK 04 AUDIO
TITLE "Le:465"
PERFORMER "Blueneck"
INDEX 01 00:00:00
FILE "05 - ub1.wav" WAVE
TRACK 05 AUDIO
TITLE "ub1"
PERFORMER "Blueneck"
INDEX 01 00:00:00
FILE "06 - Epiphany.wav" WAVE
TRACK 06 AUDIO
TITLE "Epiphany"
PERFORMER "Blueneck"
INDEX 01 00:00:00
FILE "07 - ub2.wav" WAVE
TRACK 07 AUDIO
TITLE "ub2"
PERFORMER "Blueneck"
INDEX 01 00:00:00
FILE "08 - Amok.wav" WAVE
TRACK 08 AUDIO
TITLE "Amok"
PERFORMER "Blueneck"
INDEX 01 00:00:00
TRACK 09 AUDIO
TITLE "Yesterdays Forgotten"
PERFORMER "Blueneck"
INDEX 00 05:15:12
FILE "09 - Yesterdays Forgotten.wav" WAVE
INDEX 01 00:00:00

2009 - The Fallen Host (55:19)

Страна-производитель диска: UK
Издатель (лейбл): Perfect Storm
Номер по каталогу: PS090001CD
Аудиокодек: FLAC (*.flac)
Тип рипа: tracks+.cue
Источник (релизер): Torrentc (Никси)
Треклист:
01. (Depart from Me, You Who are Cursed) [03:50]
02. Seven [05:23]
03. Low [09:40]
04. The Guest [07:06]
05. Children of Ammon [05:16]
06. Weaving Spiders Come Not Here [05:18]
07. Lilitu [09:33]
08. Revelations [09:16]

X Lossless Decoder

X Lossless Decoder version 20091202 (114.5)
XLD extraction logfile from 2009-12-05 19:28:39 +0100
Blueneck / The Fallen Host
Used drive : MATSHITA DVD-R UJ-857E (revision ZF1E)
Use cdparanoia mode : YES (CDParanoia III 10.2 engine)Disable audio cache : OK for the drive with cache less than 2750KBMake use of C2 pointers : NORead offset correction : 102Max retry count : 100
TOC of the extracted CD Track | Start | Length | Start sector | End sector --------------------------------------------------------- 1 | 00:00:00 | 03:49:15 | 0 | 17189 2 | 03:49:15 | 05:22:20 | 17190 | 41359 3 | 09:11:35 | 09:39:58 | 41360 | 84842 4 | 18:51:18 | 07:05:25 | 84843 | 116742 5 | 25:56:43 | 05:15:22 | 116743 | 140389 6 | 31:11:65 | 05:17:71 | 140390 | 164235 7 | 36:29:61 | 09:32:25 | 164236 | 207160 8 | 46:02:11 | 09:15:73 | 207161 | 248858
Track 01 Filename : /Users/MyUserName/Music/what.cd/++FLAC++/Blueneck - [2009] - The Fallen Host/01 - (Depart from Me, You Who Are Cursed).flac
CRC32 hash (test run) : 24EC1D37 CRC32 hash : 24EC1D37 CRC32 hash (skip zero) : E5369AA2 AccurateRip signature : 25AC45DD ->Track not present in AccurateRip database. Statistics Read error : 0 Skipped (treated as error) : 0 Edge jitter error (maybe fixed) : 0 Atom jitter error (maybe fixed) : 0 Drift error (maybe fixed) : 0 Dropped bytes error (maybe fixed) : 0 Duplicated bytes error (maybe fixed) : 0 Inconsistency in error sectors : 0
Track 02 Filename : /Users/MyUserName/Music/what.cd/++FLAC++/Blueneck - [2009] - The Fallen Host/02 - Seven.flac
CRC32 hash (test run) : BF1C9D95 CRC32 hash : BF1C9D95 CRC32 hash (skip zero) : 5EE8532B AccurateRip signature : FD8CA141 ->Track not present in AccurateRip database. Statistics Read error : 0 Skipped (treated as error) : 0 Edge jitter error (maybe fixed) : 0 Atom jitter error (maybe fixed) : 0 Drift error (maybe fixed) : 0 Dropped bytes error (maybe fixed) : 0 Duplicated bytes error (maybe fixed) : 0 Inconsistency in error sectors : 0
Track 03 Filename : /Users/MyUserName/Music/what.cd/++FLAC++/Blueneck - [2009] - The Fallen Host/03 - Low.flac
CRC32 hash (test run) : 3ADAEDE0 CRC32 hash : 3ADAEDE0 CRC32 hash (skip zero) : 3BBE585B AccurateRip signature : F6D997E6 ->Track not present in AccurateRip database. Statistics Read error : 0 Skipped (treated as error) : 0 Edge jitter error (maybe fixed) : 0 Atom jitter error (maybe fixed) : 0 Drift error (maybe fixed) : 0 Dropped bytes error (maybe fixed) : 0 Duplicated bytes error (maybe fixed) : 0 Inconsistency in error sectors : 0
Track 04 Filename : /Users/MyUserName/Music/what.cd/++FLAC++/Blueneck - [2009] - The Fallen Host/04 - The Guest.flac
CRC32 hash (test run) : 7C7FF990 CRC32 hash : 7C7FF990 CRC32 hash (skip zero) : 8D46517F AccurateRip signature : C8CDDC3D ->Track not present in AccurateRip database. Statistics Read error : 0 Skipped (treated as error) : 0 Edge jitter error (maybe fixed) : 0 Atom jitter error (maybe fixed) : 0 Drift error (maybe fixed) : 0 Dropped bytes error (maybe fixed) : 0 Duplicated bytes error (maybe fixed) : 0 Inconsistency in error sectors : 0
Track 05 Filename : /Users/MyUserName/Music/what.cd/++FLAC++/Blueneck - [2009] - The Fallen Host/05 - Children of Ammon.flac
CRC32 hash (test run) : CD6CF2CA CRC32 hash : CD6CF2CA CRC32 hash (skip zero) : A00737DB AccurateRip signature : 84EA5D9A ->Track not present in AccurateRip database. Statistics Read error : 0 Skipped (treated as error) : 0 Edge jitter error (maybe fixed) : 0 Atom jitter error (maybe fixed) : 0 Drift error (maybe fixed) : 0 Dropped bytes error (maybe fixed) : 0 Duplicated bytes error (maybe fixed) : 0 Inconsistency in error sectors : 0
Track 06 Filename : /Users/MyUserName/Music/what.cd/++FLAC++/Blueneck - [2009] - The Fallen Host/06 - Weaving Spiders Come Not Here.flac
CRC32 hash (test run) : 2BD415C6 CRC32 hash : 2BD415C6 CRC32 hash (skip zero) : 7CC6ED21 AccurateRip signature : B2FA9109 ->Track not present in AccurateRip database. Statistics Read error : 0 Skipped (treated as error) : 0 Edge jitter error (maybe fixed) : 0 Atom jitter error (maybe fixed) : 0 Drift error (maybe fixed) : 0 Dropped bytes error (maybe fixed) : 0 Duplicated bytes error (maybe fixed) : 0 Inconsistency in error sectors : 0
Track 07 Filename : /Users/MyUserName/Music/what.cd/++FLAC++/Blueneck - [2009] - The Fallen Host/07 - Lilitu.flac
CRC32 hash (test run) : C310E00D CRC32 hash : C310E00D CRC32 hash (skip zero) : 1B41E929 AccurateRip signature : 45F4D60A ->Track not present in AccurateRip database. Statistics Read error : 0 Skipped (treated as error) : 0 Edge jitter error (maybe fixed) : 0 Atom jitter error (maybe fixed) : 0 Drift error (maybe fixed) : 0 Dropped bytes error (maybe fixed) : 0 Duplicated bytes error (maybe fixed) : 0 Inconsistency in error sectors : 0
Track 08 Filename : /Users/MyUserName/Music/what.cd/++FLAC++/Blueneck - [2009] - The Fallen Host/08 - Revelations.flac
CRC32 hash (test run) : 0C9132F7 CRC32 hash : 0C9132F7 CRC32 hash (skip zero) : 8A7B3FB5 AccurateRip signature : B5DE299C ->Track not present in AccurateRip database. Statistics Read error : 0 Skipped (treated as error) : 0 Edge jitter error (maybe fixed) : 0 Atom jitter error (maybe fixed) : 0 Drift error (maybe fixed) : 0 Dropped bytes error (maybe fixed) : 0 Duplicated bytes error (maybe fixed) : 0 Inconsistency in error sectors : 0
No errors occurred
End of status report

CUE

TITLE "The Fallen Host"
PERFORMER "Blueneck"
REM GENRE "Post-Rock"
REM DATE 2009
FILE "01 - (Depart from Me, You Who Are Cursed).flac" WAVE
TRACK 01 AUDIO
TITLE "(Depart from Me, You Who Are Cursed)"
ISRC GB5QN0900001
INDEX 01 00:00:00
FILE "02 - Seven.flac" WAVE
TRACK 02 AUDIO
TITLE "Seven"
ISRC GB5QN0900002
INDEX 01 00:00:00
FILE "03 - Low.flac" WAVE
TRACK 03 AUDIO
TITLE "Low"
ISRC GB5QN0900003
INDEX 01 00:00:00
FILE "04 - The Guest.flac" WAVE
TRACK 04 AUDIO
TITLE "The Guest"
ISRC GB5QN0900004
INDEX 01 00:00:00
FILE "05 - Children of Ammon.flac" WAVE
TRACK 05 AUDIO
TITLE "Children of Ammon"
ISRC GB5QN0900005
INDEX 01 00:00:00
FILE "06 - Weaving Spiders Come Not Here.flac" WAVE
TRACK 06 AUDIO
TITLE "Weaving Spiders Come Not Here"
ISRC GB5QN0900006
INDEX 01 00:00:00
FILE "07 - Lilitu.flac" WAVE
TRACK 07 AUDIO
TITLE "Lilitu"
ISRC GB5QN0900007
INDEX 01 00:00:00
FILE "08 - Revelations.flac" WAVE
TRACK 08 AUDIO
TITLE "Revelations"
ISRC GB5QN0900008
INDEX 01 00:00:00

2011 - Repetitions (49:01)

Страна-производитель диска: Germany
Издатель (лейбл): Denovali Records
Номер по каталогу: den104
Аудиокодек: FLAC (*.flac)
Тип рипа: tracks+.cue
Источник (релизер): Torrentc (jiqwenn)
Треклист:
01. Pneumothorax [04:13]
02. Sawbones [05:38]
03. Venger [05:52]
04. Sleeping Through A Storm [06:45]
05. Una Salus Victus [03:38]
06. Ellipsis [05:06]
07. Barriers Down [07:22]
08. The Last Refuge [05:35]
09. Lopussa [04:57]

Отчёт EAC

Exact Audio Copy V1.0 beta 2 from 29. April 2011
EAC extraction logfile from 24. September 2011, 17:48
Blueneck / Repetitions
Used drive : TSSTcorpCD/DVDW SH-W162C Adapter: 0 ID: 0
Read mode : SecureUtilize accurate stream : YesDefeat audio cache : YesMake use of C2 pointers : No
Read offset correction : 6Overread into Lead-In and Lead-Out : NoFill up missing offset samples with silence : YesDelete leading and trailing silent blocks : NoNull samples used in CRC calculations : YesUsed interface : Native Win32 interface for Win NT & 2000Gap handling : Appended to previous track
Used output format : User Defined EncoderSelected bitrate : 1024 kBit/sQuality : HighAdd ID3 tag : NoCommand line compressor : C:\Program Files (x86)\Exact Audio Copy\Flac\flac.exeAdditional command line options : -8 -V -T "ARTIST=%artist%" -T "TITLE=%title%" -T "ALBUM=%albumtitle%" -T "DATE=%year%" -T "TRACKNUMBER=%tracknr%" -T "GENRE=%genre%" -T "PERFORMER=%albuminterpret%" -T "COMPOSER=%composer%" %haslyrics%--tag-from-file=LYRICS
TOC of the extracted CD
Track | Start | Length | Start sector | End sector --------------------------------------------------------- 1 | 0:00.00 | 4:12.30 | 0 | 18929 2 | 4:12.30 | 5:37.58 | 18930 | 44262 3 | 9:50.13 | 5:51.68 | 44263 | 70655 4 | 15:42.06 | 6:44.25 | 70656 | 100980 5 | 22:26.31 | 3:37.04 | 100981 | 117259 6 | 26:03.35 | 5:05.62 | 117260 | 140196 7 | 31:09.22 | 7:21.40 | 140197 | 173311 8 | 38:30.62 | 5:34.11 | 173312 | 198372 9 | 44:04.73 | 4:56.02 | 198373 | 220574
Track 1
Filename D:\FLAC-Ripping\01 Blueneck - Pneumothorax.wav
Pre-gap length 0:00:02.00
Peak level 98.8 % Extraction speed 4.4 X Track quality 100.0 % Test CRC 44B09F51 Copy CRC 44B09F51 Track not present in AccurateRip database Copy OK
Track 2
Filename D:\FLAC-Ripping\02 Blueneck - Sawbones.wav
Peak level 98.8 % Extraction speed 5.2 X Track quality 100.0 % Test CRC 81A14C0C Copy CRC 81A14C0C Track not present in AccurateRip database Copy OK
Track 3
Filename D:\FLAC-Ripping\03 Blueneck - Venger.wav
Peak level 98.8 % Extraction speed 5.3 X Track quality 99.9 % Test CRC 46D467B3 Copy CRC 46D467B3 Track not present in AccurateRip database Copy OK
Track 4
Filename D:\FLAC-Ripping\04 Blueneck - Sleeping Through A Storm.wav
Pre-gap length 0:00:01.46
Peak level 98.8 % Extraction speed 6.5 X Track quality 100.0 % Test CRC 35E94482 Copy CRC 35E94482 Track not present in AccurateRip database Copy OK
Track 5
Filename D:\FLAC-Ripping\05 Blueneck - Una Salus Victus.wav
Pre-gap length 0:00:01.92
Peak level 98.8 % Extraction speed 6.5 X Track quality 100.0 % Test CRC 485F5983 Copy CRC 485F5983 Track not present in AccurateRip database Copy OK
Track 6
Filename D:\FLAC-Ripping\06 Blueneck - Ellipsis.wav
Pre-gap length 0:00:01.56
Peak level 98.8 % Extraction speed 7.1 X Track quality 100.0 % Test CRC 6C855561 Copy CRC 6C855561 Track not present in AccurateRip database Copy OK
Track 7
Filename D:\FLAC-Ripping\07 Blueneck - Barriers Down.wav
Pre-gap length 0:00:00.73
Peak level 98.8 % Extraction speed 7.3 X Track quality 99.9 % Test CRC F7B8E0AC Copy CRC F7B8E0AC Track not present in AccurateRip database Copy OK
Track 8
Filename D:\FLAC-Ripping\08 Blueneck - The Last Refuge.wav
Pre-gap length 0:00:00.61
Peak level 98.8 % Extraction speed 8.1 X Track quality 100.0 % Test CRC F346B81A Copy CRC F346B81A Track not present in AccurateRip database Copy OK
Track 9
Filename D:\FLAC-Ripping\09 Blueneck - Lopussa.wav
Pre-gap length 0:00:01.78
Peak level 98.8 % Extraction speed 8.3 X Track quality 100.0 % Test CRC 6B1CF8A7 Copy CRC 6B1CF8A7 Track not present in AccurateRip database Copy OK
None of the tracks are present in the AccurateRip database
No errors occurred
End of status report
==== Log checksum D30A50D3B492E2C162CB9E52DB45B67821406A572299D280D1A9DEC7214EE1C1 ====

CUE

REM GENRE Post-Rock
REM DATE 2011
REM DISCID 7A0B7D09
REM COMMENT "ExactAudioCopy v1.0b2"
PERFORMER "Blueneck"
TITLE "Repetitions"
FILE "01 - Pneumothorax.wav" WAVE
TRACK 01 AUDIO
TITLE "Pneumothorax"
PERFORMER "Blueneck"
INDEX 01 00:00:00
FILE "02 - Sawbones.wav" WAVE
TRACK 02 AUDIO
TITLE "Sawbones"
PERFORMER "Blueneck"
INDEX 01 00:00:00
FILE "03 - Venger.wav" WAVE
TRACK 03 AUDIO
TITLE "Venger"
PERFORMER "Blueneck"
INDEX 01 00:00:00
TRACK 04 AUDIO
TITLE "Sleeping Through A Storm"
PERFORMER "Blueneck"
INDEX 00 05:50:33
FILE "04 - Sleeping Through A Storm.wav" WAVE
INDEX 01 00:00:00
TRACK 05 AUDIO
TITLE "Una Salus Victus"
PERFORMER "Blueneck"
INDEX 00 06:42:31
FILE "05 - Una Salus Victus.wav" WAVE
INDEX 01 00:00:00
TRACK 06 AUDIO
TITLE "Ellipsis"
PERFORMER "Blueneck"
INDEX 00 03:35:37
FILE "06 - Ellipsis.wav" WAVE
INDEX 01 00:00:00
TRACK 07 AUDIO
TITLE "Barriers Down"
PERFORMER "Blueneck"
INDEX 00 05:05:07
FILE "07 - Barriers Down.wav" WAVE
INDEX 01 00:00:00
TRACK 08 AUDIO
TITLE "The Last Refuge"
PERFORMER "Blueneck"
INDEX 00 07:20:69
FILE "08 - The Last Refuge.wav" WAVE
INDEX 01 00:00:00
TRACK 09 AUDIO
TITLE "Lopussa"
PERFORMER "Blueneck"
INDEX 00 05:32:27
FILE "09 - Lopussa.wav" WAVE
INDEX 01 00:00:00

2012 - Epilogue (30:32)

Страна-производитель диска: Germany
Издатель (лейбл): Denovali Records
Номер по каталогу: DEN149
Аудиокодек: FLAC (*.flac)
Тип рипа: image+.cue
Источник (релизер): CD из личной коллекции
Треклист:
01. Apogee [4:00]
02. Carina [5:07]
03. [eta carinae] [2:05]
04. Colonization - Incident 1 [3:26]
05. Colonization - Incident 2 [2:32]
06. Symbiosis - Part 1 [4:47]
07. Symbiosis - Part 2 [4:07]
08. Suppression [4:27]

Отчёт EAC

Exact Audio Copy V1.3 from 2. September 2016
Отчёт EAC об извлечении, выполненном 3. июля 2018, 20:55
Blueneck / Epilogue
Дисковод: ASUS BW-12B1ST Adapter: 1 ID: 0
Режим чтения : ДостоверностьИспользование точного потока : ДаОтключение кэша аудио : ДаИспользование указателей C2 : Нет
Коррекция смещения при чтении : 6Способность читать области Lead-in и Lead-out : НетЗаполнение пропущенных сэмплов тишиной : ДаУдаление блоков с тишиной в начале и конце : НетПри вычислениях CRC использовались нулевые сэмплы : ДаИнтерфейс : Встроенный Win32-интерфейс для Win NT/2000
Выходной формат : Внутренние WAV-операцииФормат файла сэмплов : 44.100 Гц; 16 бит; стерео
TOC извлечённого CD
Трек | Старт | Длительность | Начальный сектор | Конечный сектор --------------------------------------------------------------------- 1 | 0:00.00 | 3:59.62 | 0 | 17986 2 | 3:59.62 | 5:07.37 | 17987 | 41048 3 | 9:07.24 | 2:05.04 | 41049 | 50427 4 | 11:12.28 | 3:26.31 | 50428 | 65908 5 | 14:38.59 | 2:31.47 | 65909 | 77280 6 | 17:10.31 | 4:46.70 | 77281 | 98800 7 | 21:57.26 | 4:06.67 | 98801 | 117317 8 | 26:04.18 | 4:27.25 | 117318 | 137367
Характеристики диапазона извлечения и сообщения об ошибках
Выбранный диапазон
Имя файла D:\EAC\Evgenius1986\Blueneck - 2012 - Epilogue (Denovali Records - DEN149)\Blueneck - 2012 - Epilogue.wav
Пиковый уровень 99.4 % Скорость извлечения 6.1 X Качество диапазона 100.0 % CRC теста 12275419 CRC копии 12275419 Копирование... OK
Ошибок не произошло
AccurateRip: сводка
Трек 1 : извлечено точно (доверие 3) [EE676285] (AR v2)Трек 2 : извлечено точно (доверие 3) [30010780] (AR v2)Трек 3 : извлечено точно (доверие 3) [9FE645C8] (AR v2)Трек 4 : извлечено точно (доверие 3) [14B3F587] (AR v2)Трек 5 : извлечено точно (доверие 3) [33682F7D] (AR v2)Трек 6 : извлечено точно (доверие 3) [88880077] (AR v2)Трек 7 : извлечено точно (доверие 3) [5D8AD603] (AR v2)Трек 8 : извлечено точно (доверие 3) [58DCE30A] (AR v2)
Все треки извлечены точно
Конец отчёта
---- CUETools DB Plugin V2.1.6
[CTDB TOCID: EBV.P.WfVetyTsgcTUefDEenTdg-] foundSubmit result: EBV.P.WfVetyTsgcTUefDEenTdg- has been confirmedTrack | CTDB Status 1 | (7/7) Accurately ripped 2 | (7/7) Accurately ripped 3 | (7/7) Accurately ripped 4 | (7/7) Accurately ripped 5 | (7/7) Accurately ripped 6 | (7/7) Accurately ripped 7 | (7/7) Accurately ripped 8 | (7/7) Accurately ripped
==== Контрольная сумма отчёта F0168AADCA2C4DCEC4440B44EC546C8458F99169A136FC6EC2998D4F67E2CE0D ====

2013 - Alpha.Blueneck (Remix Album) (web) (57:45)

Издатель (лейбл): Blueneck
Аудиокодек: FLAC (*.flac)
Тип рипа: tracks
Источник (релизер): what.cd -> bandcamp
Треклист:
01. Sawbones (Alpha Remix) [05:41]
02. Armando (Barries Down Remix) [06:06]
03. Elipsis (Alpha Remix) [05:37]
04. Le:465 (Alpha Remix) [03:29]
05. The Guest (Alpha Remix) [04:41]
06. Industrial Junk (Alpha Remix) [04:07]
07. Lilitu (Alpha Remix) [09:16]
08. Revelations (Alpha Remix) [04:52]
09. Low (Alpha Remix) [10:13]
10. The Last Refuge (Alpha Remix) [03:48]

Лог проверки качества

AUDIOCHECKER v2.0 beta (build 457) - by Dester - opdester@freemail.hu~~~~~~~~~~~~~~~~~~~~~~~~~~~~~~~~~~
Started at: воскресенье, 22. 11. 2015. - 21:38.1510 files found
01 -===- F:\Мои Раздачи\Blueneck\Blueneck - 2013 - Alpha.Blueneck (Remix Album) (web)\01 - Sawbones (Alpha Remix).flac Extracted successfully Conclusion: this track is CDDA with probability 100% Tempfile successfully deleted.
02 -===- F:\Мои Раздачи\Blueneck\Blueneck - 2013 - Alpha.Blueneck (Remix Album) (web)\02 - Armando (Barries Down Remix).flac Extracted successfully Conclusion: this track is CDDA with probability 100% Tempfile successfully deleted.
03 -===- F:\Мои Раздачи\Blueneck\Blueneck - 2013 - Alpha.Blueneck (Remix Album) (web)\03 - Elipsis (Alpha Remix).flac Extracted successfully Conclusion: this track is CDDA with probability 100% Tempfile successfully deleted.
04 -===- F:\Мои Раздачи\Blueneck\Blueneck - 2013 - Alpha.Blueneck (Remix Album) (web)\04 - Le-465 (Alpha Remix).flac Extracted successfully Conclusion: this track is CDDA with probability 99% Tempfile successfully deleted.
05 -===- F:\Мои Раздачи\Blueneck\Blueneck - 2013 - Alpha.Blueneck (Remix Album) (web)\05 - The Guest (Alpha Remix).flac Extracted successfully Conclusion: this track is CDDA with probability 100% Tempfile successfully deleted.
06 -===- F:\Мои Раздачи\Blueneck\Blueneck - 2013 - Alpha.Blueneck (Remix Album) (web)\06 - Industrial Junk (Alpha Remix).flac Extracted successfully Conclusion: this track is CDDA with probability 100% Tempfile successfully deleted.
07 -===- F:\Мои Раздачи\Blueneck\Blueneck - 2013 - Alpha.Blueneck (Remix Album) (web)\07 - Lilitu (Alpha Remix).flac Extracted successfully Conclusion: this track is CDDA with probability 100% Tempfile successfully deleted.
08 -===- F:\Мои Раздачи\Blueneck\Blueneck - 2013 - Alpha.Blueneck (Remix Album) (web)\08 - Revelations (Alpha Remix).flac Extracted successfully Conclusion: this track is CDDA with probability 100% Tempfile successfully deleted.
09 -===- F:\Мои Раздачи\Blueneck\Blueneck - 2013 - Alpha.Blueneck (Remix Album) (web)\09 - Low (Alpha Remix).flac Extracted successfully Conclusion: this track is CDDA with probability 100% Tempfile successfully deleted.
10 -===- F:\Мои Раздачи\Blueneck\Blueneck - 2013 - Alpha.Blueneck (Remix Album) (web)\10 - The Last Refuge (Alpha Remix).flac Extracted successfully Conclusion: this track is CDDA with probability 100% Tempfile successfully deleted.
Finished at: воскресенье, 22. 11. 2015. - 21:42.25 (operation time: 0:04.09)

2014 - Low (Live 13th June 2014) (web single) (07:39)

Издатель (лейбл): Blueneck
Аудиокодек: FLAC (*.flac)
Тип рипа: tracks
Источник (релизер): bandcamp
Треклист:
01. Low (Live 13th June 2014) [07:39]

Лог проверки качества

AUDIOCHECKER v2.0 beta (build 457) - by Dester - opdester@freemail.hu~~~~~~~~~~~~~~~~~~~~~~~~~~~~~~~~~~
Started at: воскресенье, 22. 11. 2015. - 16:51.211 file found
1 -===- F:\Мои Раздачи\Blueneck\Blueneck - 2014 - Low (Live 13th June 2014) (web single)\01 - Low (Live 13th June 2014).flac Extracted successfully Conclusion: this track is CDDA with probability 100% Tempfile successfully deleted.
Finished at: воскресенье, 22. 11. 2015. - 16:51.54 (operation time: 0:00.32)

2014 - Ub2 (Live 13th June 2014) (web single) (05:54)

Издатель (лейбл): Blueneck
Аудиокодек: FLAC (*.flac)
Тип рипа: tracks
Источник (релизер): bandcamp
Треклист:
01. Low (Live 13th June 2014) [05:54]

Лог проверки качества

AUDIOCHECKER v2.0 beta (build 457) - by Dester - opdester@freemail.hu~~~~~~~~~~~~~~~~~~~~~~~~~~~~~~~~~~
Started at: воскресенье, 22. 11. 2015. - 16:52.171 file found
1 -===- F:\Мои Раздачи\Blueneck\Blueneck - 2014 - Ub2 (Live 13th June 2014) (web single)\01 - Ub2 (Live June 13th 2014).flac Extracted successfully Conclusion: this track is CDDA with probability 100% Tempfile successfully deleted.
Finished at: воскресенье, 22. 11. 2015. - 16:52.42 (operation time: 0:00.25)

2014 - King Nine (53:24)

Страна-производитель диска: Germany
Издатель (лейбл): Denovali Records
Номер по каталогу: DEN212
Аудиокодек: FLAC (*.flac)
Тип рипа: image+.cue
Источник (релизер): CD из личной коллекции
Треклист:
01. Counting Out [5:47]
02. Sirens [6:25]
03. King Nine [5:25]
04. Man of Lies [4:23]
05. Broken Fingers [5:48]
06. Father, Sister [4:05]
07. Spiderlegs [6:38]
08. Mutatis [9:07]
09. Anything Other Than Breathing [6:17]

Отчёт EAC

Exact Audio Copy V1.3 from 2. September 2016
Отчёт EAC об извлечении, выполненном 3. июля 2018, 21:17
Blueneck / King Nine
Дисковод: ASUS BW-12B1ST Adapter: 1 ID: 0
Режим чтения : ДостоверностьИспользование точного потока : ДаОтключение кэша аудио : ДаИспользование указателей C2 : Нет
Коррекция смещения при чтении : 6Способность читать области Lead-in и Lead-out : НетЗаполнение пропущенных сэмплов тишиной : ДаУдаление блоков с тишиной в начале и конце : НетПри вычислениях CRC использовались нулевые сэмплы : ДаИнтерфейс : Встроенный Win32-интерфейс для Win NT/2000
Выходной формат : Внутренние WAV-операцииФормат файла сэмплов : 44.100 Гц; 16 бит; стерео
TOC извлечённого CD
Трек | Старт | Длительность | Начальный сектор | Конечный сектор --------------------------------------------------------------------- 1 | 0:00.00 | 5:47.19 | 0 | 26043 2 | 5:47.19 | 6:24.52 | 26044 | 54895 3 | 12:11.71 | 5:24.46 | 54896 | 79241 4 | 17:36.42 | 4:22.46 | 79242 | 98937 5 | 21:59.13 | 5:47.54 | 98938 | 125016 6 | 27:46.67 | 4:05.08 | 125017 | 143399 7 | 31:52.00 | 6:38.17 | 143400 | 173266 8 | 38:30.17 | 9:06.50 | 173267 | 214266 9 | 47:36.67 | 6:17.08 | 214267 | 242549
Характеристики диапазона извлечения и сообщения об ошибках
Выбранный диапазон
Имя файла D:\EAC\Evgenius1986\Blueneck - 2014 - King Nine (Denovali Records - DEN212)\Blueneck - 2014 - King Nine.wav
Пиковый уровень 99.4 % Скорость извлечения 6.9 X Качество диапазона 99.9 % CRC теста 0F5BEAA2 CRC копии 0F5BEAA2 Копирование... OK
Ошибок не произошло
AccurateRip: сводка
Трек 1 : извлечено точно (доверие 5) [68EE1827] (AR v2)Трек 2 : извлечено точно (доверие 5) [4E42DE17] (AR v2)Трек 3 : извлечено точно (доверие 5) [E9B554B0] (AR v2)Трек 4 : извлечено точно (доверие 5) [0A6E566B] (AR v2)Трек 5 : извлечено точно (доверие 5) [4F3B7B18] (AR v2)Трек 6 : извлечено точно (доверие 5) [EFF4B228] (AR v2)Трек 7 : извлечено точно (доверие 5) [EE9F5150] (AR v2)Трек 8 : извлечено точно (доверие 5) [84E9B4AC] (AR v2)Трек 9 : извлечено точно (доверие 5) [5E369E38] (AR v2)
Все треки извлечены точно
Конец отчёта
---- CUETools DB Plugin V2.1.6
[CTDB TOCID: t4diN5vf_hfRcHPJQlDQBU318vk-] foundSubmit result: t4diN5vf_hfRcHPJQlDQBU318vk- has been confirmedTrack | CTDB Status 1 | (8/8) Accurately ripped 2 | (8/8) Accurately ripped 3 | (8/8) Accurately ripped 4 | (8/8) Accurately ripped 5 | (8/8) Accurately ripped 6 | (8/8) Accurately ripped 7 | (8/8) Accurately ripped 8 | (8/8) Accurately ripped 9 | (8/8) Accurately ripped
==== Контрольная сумма отчёта 0AE3FAF7B42B0B96CE27B6B78EED47577EC96F9A97ED843911902F1160FFAB24 ====

2016 - The Outpost (48:04)

Страна-производитель диска: Germany
Издатель (лейбл): Denovali Records
Номер по каталогу: DEN273
Аудиокодек: FLAC (*.flac)
Тип рипа: image+.cue
Источник (релизер): CD из личной коллекции
Треклист:
01. From Beyond [6:13]
02. Ghosts [4:52]
03. Hypnos [7:07]
04. Rats In The Wall [6:15]
05. The White Strip [4:56]
06. Glades [4:13]
07. Hive [8:05]
08. Other Gods [6:23]

Отчёт EAC

Exact Audio Copy V1.3 from 2. September 2016
Отчёт EAC об извлечении, выполненном 3. июля 2018, 21:37
Blueneck / The Outpost
Дисковод: ASUS BW-12B1ST Adapter: 1 ID: 0
Режим чтения : ДостоверностьИспользование точного потока : ДаОтключение кэша аудио : ДаИспользование указателей C2 : Нет
Коррекция смещения при чтении : 6Способность читать области Lead-in и Lead-out : НетЗаполнение пропущенных сэмплов тишиной : ДаУдаление блоков с тишиной в начале и конце : НетПри вычислениях CRC использовались нулевые сэмплы : ДаИнтерфейс : Встроенный Win32-интерфейс для Win NT/2000
Выходной формат : Внутренние WAV-операцииФормат файла сэмплов : 44.100 Гц; 16 бит; стерео
TOC извлечённого CD
Трек | Старт | Длительность | Начальный сектор | Конечный сектор --------------------------------------------------------------------- 1 | 0:00.00 | 6:12.38 | 0 | 27937 2 | 6:12.38 | 4:52.31 | 27938 | 49868 3 | 11:04.69 | 7:06.40 | 49869 | 81858 4 | 18:11.34 | 6:14.65 | 81859 | 109973 5 | 24:26.24 | 4:56.15 | 109974 | 132188 6 | 29:22.39 | 4:13.34 | 132189 | 151197 7 | 33:35.73 | 8:05.21 | 151198 | 187593 8 | 41:41.19 | 6:22.56 | 187594 | 216299
Характеристики диапазона извлечения и сообщения об ошибках
Выбранный диапазон
Имя файла D:\EAC\Evgenius1986\Blueneck - 2016 - The Outpost (Denovali Records - DEN273)\Blueneck - 2016 - The Outpost.wav
Пиковый уровень 99.4 % Скорость извлечения 6.7 X Качество диапазона 100.0 % CRC теста 48DED9F2 CRC копии 48DED9F2 Копирование... OK
Ошибок не произошло
AccurateRip: сводка
Трек 1 отсутствует в базе данныхТрек 2 отсутствует в базе данныхТрек 3 отсутствует в базе данныхТрек 4 отсутствует в базе данныхТрек 5 отсутствует в базе данныхТрек 6 отсутствует в базе данныхТрек 7 отсутствует в базе данныхТрек 8 отсутствует в базе данных
Ни одного трека нет в базе AccurateRip
Конец отчёта
---- CUETools DB Plugin V2.1.6
[CTDB TOCID: pUB3oNNoKlt80GXq5egYKrh7oU4-] foundSubmit result: pUB3oNNoKlt80GXq5egYKrh7oU4- has been confirmedTrack | CTDB Status 1 | (7/7) Accurately ripped 2 | (7/7) Accurately ripped 3 | (7/7) Accurately ripped 4 | (7/7) Accurately ripped 5 | (7/7) Accurately ripped 6 | (7/7) Accurately ripped 7 | (7/7) Accurately ripped 8 | (7/7) Accurately ripped
==== Контрольная сумма отчёта 22F183B596B9D5572A6E6E3EF79B7644CE45371CF0ECFB3880C022E84B613ADA ====

2017 - The Outpost: Reconstructed [web] (46:25)

Издатель (лейбл): Blueneck
Аудиокодек: FLAC (*.flac)
Тип рипа: tracks
Источник (релизер): bandcamp
Треклист:
01. From Beyond (Rapture Mix) [6:15]
02. Ghosts (Jovian Mix) [3:41]
03. Hypnos (Dark Waters Mix) [5:58]
04. Rats in the Wall (Liberation Mix) [5:15]
05. The White Ship (Teeth Bared Mix) [6:04]
06. Glades (Repentance Mix) [4:14]
07. Hive (Mostly Brave Mix) [5:43]
08. Other Gods (Ascension Mix) [9:14]

Лог проверки качества

-----------------------
DON'T MODIFY THIS FILE
-----------------------
PERFORMER: auCDtect Task Manager, ver. 1.6.0 RC1 build 1.6.0.1Copyright (c) 2008-2010 y-soft. All rights reservedhttp://y-soft.org
ANALYZER: auCDtect: CD records authenticity detector, version 0.8.2Copyright (c) 2004 Oleg Berngardt. All rights reserved.Copyright (c) 2004 Alexander Djourik. All rights reserved.
FILE: 01 - From Beyond (Rapture Mix).flac Size: 37810422 Hash: A2673FC7BF391C8C759C2A674EA50AD1 Accuracy: -m0 Conclusion: CDDA 100% Signature: 793FD7BEF430D09CA484E9FFE71D4C3A852679F8FILE: 02 - Ghosts (Jovian Mix).flac Size: 20845507 Hash: 25D85C2A2879C3F54CDDEB561985B49A Accuracy: -m0 Conclusion: CDDA 100% Signature: 615082CC9B1E8DA5120717653ED34A8385294A20FILE: 03 - Hypnos (Dark Waters Mix).flac Size: 32257796 Hash: 5EAA2FB19A62B20160B9BCD92ABE62D2 Accuracy: -m0 Conclusion: CDDA 100% Signature: 9E9B5455C6133728441A59A47D1AC83ED0F7FA14FILE: 04 - Rats in the Wall (Liberation Mix).flac Size: 31973737 Hash: 59F0334ADB2E5B0460A2583F490E984D Accuracy: -m0 Conclusion: CDDA 100% Signature: 984BEDA7EF7172670C1F3B9FFEF90219169DE455FILE: 05 - The White Ship (Teeth Bared Mix).flac Size: 39855670 Hash: D9B1B8C99CD5B556F6AFCF99FD479B55 Accuracy: -m0 Conclusion: CDDA 100% Signature: 46B8B585B0ADCB0FCCB349470347EC3F40B2FF8AFILE: 06 - Glades (Repentance Mix).flac Size: 25680667 Hash: FBE50B7C37D77EA9E8E0D90766F28ED0 Accuracy: -m0 Conclusion: CDDA 100% Signature: 398E8FB43B9A6ED1D25343CF05BBA2CD370EEBBBFILE: 07 - Hive (Mostly Brave Mix).flac Size: 35782672 Hash: 1EEB0A4E30D6CA69C379D84D7A12B91E Accuracy: -m0 Conclusion: CDDA 100% Signature: C81DEEBA5480EA2673798AA91F640F2918FD5CABFILE: 08 - Other Gods (Ascension Mix).flac Size: 58234206 Hash: 84DB5189AE4C6AACAA2D2383E3737265 Accuracy: -m0 Conclusion: CDDA 100% Signature: 6ED4B71772D9610A6F88CC89C8B6E98CF91AB355
Внимание! Для получения полной дискографии необходимо скачать также данную раздачу. Обе попадают в одну и ту же папку.


[torrentc.info]_t_5121324.torrent
Торрент: Зарегистрирован ·  [ 2018-10-23 12:52 ] ·  7aadd5604906df0c199a1542c5c63af21c480298

91 KB

Статус: проверено
Скачан: 0 раз
Размер: 2.11 GB
Оценка: 
(Голосов: 0)
Сказали спасибо: 0  Спасибо
Похожие темы
[Профиль]    [ЛС]
Показать сообщения:    
Ответить на тему

Текущее время: Сегодня 15:18

Часовой пояс: GMT + 7



Вы не можете начинать темы
Вы не можете отвечать на сообщения
Вы не можете редактировать свои сообщения
Вы не можете удалять свои сообщения
Вы не можете голосовать в опросах
Вы не можете прикреплять файлы к сообщениям
Вы можете скачивать файлы