(Psychedelic | Stoner Rock) [WEB] Uncle Acid & The Deadbeats - Wasteland - 2018, FLAC (tracks), lossless

Ответить на тему
Статистика раздачи [Обновить пиров]
Размер:  319 MB   |    Зарегистрирован:  1 месяц 4 дня   |    Скачан:  0 раз

Полного источника не было: Никогда

 
   
 
 
 
Автор Сообщение

torrentc.info

Создавать темы 17-Окт-2018 22:50

[Цитировать]



Uncle Acid & The Deadbeats

Wasteland





• Жанр: Psychedelic Rock
• Носитель: WEB
• Год издания: 2018
• Издатель: Rise Above Records
• Страна: ГЛ UK
• Аудиокодек: FLAC (*.flac)
• Тип рипа: tracks
• Продолжительность: 00:46:35
• Источник (спасибо): NBMus
• WEB 7digital
• Наличие сканов: front

01 - I See Through You (00:05:42)
02 - Shockwave City (00:04:00)
03 - No Return (00:08:49)
04 - Blood Runner (00:04:01)
05 - Stranger Tonight (00:03:54)
06 - Wasteland (00:07:46)
07 - Bedouin (00:05:32)
08 - Exodus (00:06:47)

-
-

• Замер динамического диапазона •

foobar2000 1.3.17 / Замер динамического диапазона (DR) 1.1.1Дата отчёта: 2018-10-11 18:21:53
--------------------------------------------------------------------------------Анализ: Uncle Acid & The Deadbeats / Wasteland--------------------------------------------------------------------------------
DR Пики RMS Продолжительность трека--------------------------------------------------------------------------------DR8 -0.13 дБ -9.21 дБ 5:43 01-I See Through YouDR8 -0.13 дБ -9.29 дБ 4:00 02-Shockwave CityDR7 -0.13 дБ -10.28 дБ 8:50 03-No ReturnDR7 -0.13 дБ -8.39 дБ 4:01 04-Blood RunnerDR7 -0.13 дБ -8.24 дБ 3:55 05-Stranger TonightDR7 -0.13 дБ -9.93 дБ 7:46 06-WastelandDR8 -0.13 дБ -9.00 дБ 5:33 07-BedouinDR8 -0.13 дБ -9.71 дБ 6:48 08-Exodus--------------------------------------------------------------------------------
Количество треков: 8Реальные значения DR: DR8
Частота: 44100 ГцКаналов: 2Разрядность: 16Битрейт: 952 кбит/сКодек: FLAC================================================================================
-

• Лог проверки качества •

-----------------------
DON'T MODIFY THIS FILE
-----------------------
PERFORMER: auCDtect Task Manager, ver. 1.6.0 RC1 build 1.6.0.1Copyright (c) 2008-2010 y-soft. All rights reservedhttp://y-soft.org
ANALYZER: auCDtect: CD records authenticity detector, version 0.8.2Copyright (c) 2004 Oleg Berngardt. All rights reserved.Copyright (c) 2004 Alexander Djourik. All rights reserved.
FILE: 08 - Exodus.flac Size: 48652291 Hash: 5711411989DDFCE61A4284CBD1210249 Accuracy: -m0 Conclusion: CDDA 100% Signature: 334D22DCC99FD9EA19F11EE38E577F88165D90E3FILE: 07 - Bedouin.flac Size: 41000677 Hash: 2FC4CD4A9B3A468A7956581D72ACD50A Accuracy: -m0 Conclusion: CDDA 100% Signature: BC0FC0F6A1EB26F4AA1A1E0E0423947CF31BF106FILE: 06 - Wasteland.flac Size: 56056265 Hash: 750412DD35AF0AC76B6D9C617B491002 Accuracy: -m0 Conclusion: CDDA 100% Signature: 0839E70E9F5AB3E5209A8407F2687AE58238C5ACFILE: 05 - Stranger Tonight.flac Size: 28196193 Hash: 5800C9BB218E91CC564DCB40B5084DCA Accuracy: -m0 Conclusion: CDDA 100% Signature: F93703E46E6A98E654DD550CCC3561885869D8E7FILE: 04 - Blood Runner.flac Size: 28942902 Hash: 56744859B2584FACE674F37BE4395929 Accuracy: -m0 Conclusion: CDDA 100% Signature: 2A0C50B3A9A200F08CF1DBC47F9CAFAE18AA61CEFILE: 03 - No Return.flac Size: 59666049 Hash: 144EE18619C82846D84935F15F341C50 Accuracy: -m0 Conclusion: CDDA 100% Signature: 926A75645D8D714E4332F3B048567E429657E37EFILE: 02 - Shockwave City.flac Size: 30381794 Hash: 8ECE190349FDC2845F229CAD0653C553 Accuracy: -m0 Conclusion: CDDA 100% Signature: 5D5FB8A2B85C92D290265C277D12746D7F25B59EFILE: 01 - I See Through You.flac Size: 41885700 Hash: 7018F90EAF4CD11BA94FEE7FD02B68E8 Accuracy: -m0 Conclusion: CDDA 100% Signature: 6737F5CA76F49EC1796BE85C8F253E6CEC9A6178
- [img]https://i99.fastpic.ru/big/2018/0823/1a/83f981cfd9aeb3a80abededfc988d71a.png[/img]


[torrentc.info]_t_5627064.torrent
Торрент: Зарегистрирован ·  [ 2018-10-17 22:49 ] ·  2ab8d6bf7ca2398be6f602dea35f35c0dc64d71d

13 KB

Статус: проверено
Скачан: 0 раз
Размер: 319 MB
Оценка: 
(Голосов: 0)
Сказали спасибо: 0  Спасибо
Похожие темы
[Профиль]    [ЛС]
Показать сообщения:    
Ответить на тему

Текущее время: Сегодня 17:51

Часовой пояс: GMT + 7



Вы не можете начинать темы
Вы не можете отвечать на сообщения
Вы не можете редактировать свои сообщения
Вы не можете удалять свои сообщения
Вы не можете голосовать в опросах
Вы не можете прикреплять файлы к сообщениям
Вы можете скачивать файлы