Точка отрыва / Action Point (Тим Киркби / Tim Kirkby) [2018, США, комедия, HDRip] Dub

Ответить на тему
 
Автор Сообщение

torrentc.info

Создавать темы 17-Окт-2018 11:08

[Цитировать]

Точка отрыва / Action Point
Страна: США
Жанр: комедия
Год выхода: 2018
Продолжительность: 01:24:37
Перевод: Профессиональный (дублированный)
Субтитры: нет
Режиссер: Тим Киркби / Tim Kirkby
В ролях: Джонни Ноксвил
Элинор Вортингтон-Кокс
Крис Понтиус
Дэн Баккедаль
Джонни Пембертон
Бригитт Ланди-Пейн
Эрик Манака
Джошуа Хувер
Коннер МакВикер
Майкл Эверсон
Описание: История безрассудного парня Ди-Си — гордого владельца «Точки отрыва», неуправляемого парка аттракционов, где аттракционы построены максимально небезопасными для пущего веселья. Гнусный застройщик строит козни, чтобы закрыть парк, и Ди-Си вместе со своей чудаковатой командой неудачников должен пойти ва-банк и приложить все силы, чтобы спасти «Точку отрыва».
Доп. информация: https://www.kinopoisk.ru/film/1035521/
Сэмпл: http://sendfile.su/1449112
Качество видео: HDRip найден в сети
Формат файла: AVI
Видео: 688x288 (2.39:1), 23.976 fps, XviD build 73 ~1101 kbps avg, 0.23 bit/pixel
Аудио: 48 kHz, MPEG Layer 3, 2 ch, ~128.00 kbps avg

MediaInfo

GeneralComplete name : S:\Tochka.Otryva.2018.745MB..aviFormat : AVIFormat/Info : Audio Video InterleaveFile size : 747 MiBDuration : 1h 24mnOverall bit rate : 1 235 Kbps
VideoID : 0Format : MPEG-4 VisualFormat profile : Advanced Simple@L5Format settings, BVOP : 1Format settings, QPel : NoFormat settings, GMC : No warppointsFormat settings, Matrix : CustomCodec ID : XVIDCodec ID/Hint : XviDDuration : 1h 24mnBit rate : 1 101 KbpsWidth : 688 pixelsHeight : 288 pixelsDisplay aspect ratio : 2.40:1Frame rate : 23.976 fpsColor space : YUVChroma subsampling : 4:2:0Bit depth : 8 bitsScan type : ProgressiveCompression mode : LossyBits/(Pixel*Frame) : 0.232Stream size : 666 MiB (89%)Writing library : XviD 73
AudioID : 1Format : MPEG AudioFormat version : Version 1Format profile : Layer 3Codec ID : 55Codec ID/Hint : MP3Duration : 1h 24mnBit rate mode : ConstantBit rate : 128 KbpsChannel(s) : 2 channelsSampling rate : 48.0 KHzCompression mode : LossyStream size : 77.5 MiB (10%)Alignment : Aligned on interleavesInterleave, duration : 167 ms (4.00 video frames)Interleave, preload duratio : 216 msWriting library : LAME3.99rEncoding settings : -m s -V 4 -q 2 -lowpass 17 -b 128

Скриншот c названием фильма

[Профиль]    [ЛС]
Показать сообщения:    
Ответить на тему

Текущее время: Сегодня 22:43

Часовой пояс: GMT + 7



Вы не можете начинать темы
Вы не можете отвечать на сообщения
Вы не можете редактировать свои сообщения
Вы не можете удалять свои сообщения
Вы не можете голосовать в опросах
Вы не можете прикреплять файлы к сообщениям
Вы не можете скачивать файлы