Погоня во времени / Time Chasers (Дэвид Джанкола / David Giancola) [1994, США, Фантастика, DVDRip] AVO (Александр Кашкин) + Original Eng

Ответить на тему
Статистика раздачи [Обновить пиров]
Размер:  1.49 GB   |    Зарегистрирован:  2 месяца 3 дня   |    Скачан:  1 раз

Полного источника не было: 2 месяца 2 дня

 
   
 
 
 
Автор Сообщение

torrentc.info

Создавать темы 16-Окт-2018 01:41

[Цитировать]

Погоня во времени / Time Chasers
«The Ultimate Time Transport must be Destroyed to Save the Future...»
[img=right]https://i2.imageban.ru/out/2018/10/15/921f1ce3649e9...77ec8f.jpg[/img]
Страна: США
Жанр: Фантастика
Год выхода: 1994
Продолжительность: 01:29:19
Перевод: Авторский (одноголосый закадровый) Александр Кашкин
Субтитры: нет
Оригинальная аудиодорожка: английский
Режиссер: Дэвид Джанкола / David Giancola
В ролях: Мэттью Бруч, Бонни Притчард, Питер Хэррингтон, Джордж Вудард, Майкл Дж. Валентайн,
Джим Рон, Тед Пендлтон, Бекки Фентон, Джек Макгиннис, Мартин Гиги
Описание: Молодой физик Ник изобретает временной транспортер. Из телепередачи Ник узнает о
компании «ДЖИН КОР», субсидирующей проекты, связанные с будущим. Выделив средства на
дальнейшую работу, компания забирает у парня транспортер и сдает его в аренду разным лицам
за большие деньги. А клиенты переделывают историю на свой вкус, что приводит к нехорошим
последствиям.
Доп. информация: Дорожка с А. Кашкиным синхронизирована и наложена ale_x2008 при помощи Adobe Audition, Sony Vegas и VirtualDubMod.
За оцифрованную с VHS дорожку благодарим - Glowamy


Сэмпл: https://yadi.sk/i/7aB9gOaCFmS3-Q
Качество видео: DVDRip
Формат файла: AVI
Видео: XviD build 47, 640x480 (1.33:1), 23.976 fps, 1993 kbps avg, 0.27 bit/pixel
Аудио: AC3 Dolby Digital, 48000Hz 2/0 (L,R) ch (mono), 192 kbps avg
Аудио 2: AC3 Dolby Digital, 48000Hz 2/0 (L,R) ch, 192 kbps avg

MediaInfo

Погоня во времени - Time Chasers (by ale_x2008).aviFormat : AVIFormat/Info : Audio Video InterleaveFile size : 1.49 GiBDuration : 1 h 29 minOverall bit rate : 2 391 kb/sMovie name : Погоня во времени - Time Chasers (by ale_x2008)Director : by ale_x2008Writing application : VirtualDubMod 1.5.10.2 (build 2540/release)Copyright : Edich2Comment : Torrentc
VideoID : 0Format : MPEG-4 VisualFormat profile : Advanced Simple@L5Format settings : BVOP1 / Custom MatrixFormat settings, BVOP : 1Format settings, QPel : NoFormat settings, GMC : No warppointsFormat settings, Matrix : CustomCodec ID : XVIDCodec ID/Hint : XviDDuration : 1 h 29 minBit rate : 1 993 kb/sWidth : 640 pixelsHeight : 480 pixelsDisplay aspect ratio : 4:3Frame rate : 23.976 (24000/1001) FPSColor space : YUVChroma subsampling : 4:2:0Bit depth : 8 bitsScan type : ProgressiveCompression mode : LossyBits/(Pixel*Frame) : 0.271Stream size : 1.24 GiB (83%)Writing library : XviD 1.2.0.dev47 (UTC 2006-11-01)
Audio #1ID : 1Format : AC-3Format/Info : Audio Coding 3Codec ID : 2000Duration : 1 h 29 minBit rate mode : ConstantBit rate : 192 kb/sChannel(s) : 2 channelsChannel positions : Front: L RSampling rate : 48.0 kHzFrame rate : 31.250 FPS (1536 SPF)Bit depth : 16 bitsCompression mode : LossyStream size : 123 MiB (8%)Alignment : Split accross interleavesInterleave, duration : 42 ms (1.00 video frame)Interleave, preload duratio : 500 msService kind : Complete Main
Audio #2ID : 2Format : AC-3Format/Info : Audio Coding 3Codec ID : 2000Duration : 1 h 29 minBit rate mode : ConstantBit rate : 192 kb/sChannel(s) : 2 channelsChannel positions : Front: L RSampling rate : 48.0 kHzFrame rate : 31.250 FPS (1536 SPF)Bit depth : 16 bitsCompression mode : LossyStream size : 123 MiB (8%)Alignment : Split accross interleavesInterleave, duration : 42 ms (1.00 video frame)Interleave, preload duratio : 500 msService kind : Complete Main


[torrentc.info]_t_5629214.torrent
Торрент: Зарегистрирован ·  [ 2018-10-16 01:41 ] ·  e5852fc3b2a8706a564b96c1c3badaccdd7e50ba

15 KB

Статус: проверено
Скачан: 1 раз
Размер: 1.49 GB
Оценка: 
(Голосов: 0)
Сказали спасибо: 0  Спасибо
Похожие темы
[Профиль]    [ЛС]
Показать сообщения:    
Ответить на тему

Текущее время: Сегодня 08:39

Часовой пояс: GMT + 7



Вы не можете начинать темы
Вы не можете отвечать на сообщения
Вы не можете редактировать свои сообщения
Вы не можете удалять свои сообщения
Вы не можете голосовать в опросах
Вы не можете прикреплять файлы к сообщениям
Вы можете скачивать файлы