(Rock, Alternative Rock, Gothic) [CD] Peter Murphy - 5 Albums - 2018 (5CD Box Set Beggars Banquet EU), FLAC (image+.cue), lossless

Ответить на тему
Статистика раздачи [Обновить пиров]
Размер:  3.79 GB   |    Зарегистрирован:  1 месяц 4 дня   |    Скачан:  0 раз

Полного источника не было: Никогда

 
   
 
 
 
Автор Сообщение

torrentc.info

Создавать темы 15-Окт-2018 22:26

[Цитировать]

Peter Murphy - 5 Albums
Жанр: Rock, Alternative Rock, Gothic
Носитель: CD
Страна-производитель диска: EU
Год издания диска: 2018
Издатель (лейбл): Beggars Banquet / Universal MCA Music
Номер по каталогу: BBQCD2115
Страна: UK
Аудио кодек: FLAC (*.flac)
Тип рипа: image+.cue
Битрейт аудио: lossless
Продолжительность: 06:33:56
Источник (релизер): allekkss48
Наличие сканов в содержимом раздачи: да
Треклист:

1986 - Should The World Fail To Fall Apart (01:17:46)

01. Canvas Beauty (Romance Version)
02. The Light Pours Out Of Me
03. Confessions
04. Should The World Fail To Fall Apart
05. Never Man
06. God Sends
07. Blue Heart
08. The Answer Is Clear
09. Final Solution
10. Jemal
Bonus Tracks:
11. Canvas Beauty (Up Version)
12. Should The World Fail To Fall Apart (Version)
13. Stay
14. Final Solution (Club Mix)
15. Tale Of The Tongue (Extended Version)

Лог создания рипа

Exact Audio Copy V1.3 from 2. September 2016
EAC extraction logfile from 25. September 2018, 19:07
Peter Murphy / Should The World Fail To Fall Apart
Used drive : PLEXTOR BD-R PX-B950SA Adapter: 1 ID: 1
Read mode : SecureUtilize accurate stream : YesDefeat audio cache : YesMake use of C2 pointers : No
Read offset correction : 6Overread into Lead-In and Lead-Out : NoFill up missing offset samples with silence : YesDelete leading and trailing silent blocks : NoNull samples used in CRC calculations : YesUsed interface : Native Win32 interface for Win NT & 2000
Used output format : Internal WAV RoutinesSample format : 44.100 Hz; 16 Bit; Stereo
TOC of the extracted CD
Track | Start | Length | Start sector | End sector --------------------------------------------------------- 1 | 0:00.00 | 4:47.27 | 0 | 21551 2 | 4:47.27 | 3:17.06 | 21552 | 36332 3 | 8:04.33 | 5:40.67 | 36333 | 61899 4 | 13:45.25 | 4:49.42 | 61900 | 83616 5 | 18:34.67 | 6:15.21 | 83617 | 111762 6 | 24:50.13 | 5:50.29 | 111763 | 138041 7 | 30:40.42 | 4:27.63 | 138042 | 158129 8 | 35:08.30 | 6:27.41 | 158130 | 187195 9 | 41:35.71 | 3:56.37 | 187196 | 204932 10 | 45:32.33 | 5:34.51 | 204933 | 230033 11 | 51:07.09 | 5:10.74 | 230034 | 253357 12 | 56:18.08 | 4:35.01 | 253358 | 273983 13 | 60:53.09 | 4:53.14 | 273984 | 295972 14 | 65:46.23 | 5:30.52 | 295973 | 320774 15 | 71:17.00 | 6:28.52 | 320775 | 349926
Range status and errors
Selected range
Filename C:\Users\Alex\Desktop\Lossless Galaxy ALLexxess\Peter Murphy\2018 5 Albums (5CD Box Set Beggars Banquet)\1986 Should The World Fail To Fall Apart\Peter Murphy - Should The World Fail To Fall Apart.wav
Peak level 97.0 % Extraction speed 8.7 X Range quality 100.0 % Test CRC 915642E3 Copy CRC 915642E3 Copy OK
No errors occurred
AccurateRip summary
Track 1 not present in databaseTrack 2 not present in databaseTrack 3 not present in databaseTrack 4 not present in databaseTrack 5 not present in databaseTrack 6 not present in databaseTrack 7 not present in databaseTrack 8 not present in databaseTrack 9 not present in databaseTrack 10 not present in databaseTrack 11 not present in databaseTrack 12 not present in databaseTrack 13 not present in databaseTrack 14 not present in databaseTrack 15 not present in database
None of the tracks are present in the AccurateRip database
End of status report
---- CUETools DB Plugin V2.1.6
[CTDB TOCID: TnyQMTpLPYcexBksyQMda3sv6lA-] foundSubmit result: TnyQMTpLPYcexBksyQMda3sv6lA- has been confirmedTrack | CTDB Status 1 | (13/13) Accurately ripped 2 | (13/13) Accurately ripped 3 | (13/13) Accurately ripped 4 | (13/13) Accurately ripped 5 | (13/13) Accurately ripped 6 | (13/13) Accurately ripped 7 | (13/13) Accurately ripped 8 | (13/13) Accurately ripped 9 | (13/13) Accurately ripped 10 | (13/13) Accurately ripped 11 | (13/13) Accurately ripped 12 | (13/13) Accurately ripped 13 | (13/13) Accurately ripped 14 | (13/13) Accurately ripped 15 | (13/13) Accurately ripped
==== Log checksum B1434735979193B448DEA854EBB776B284FB513349436313D939AC349D9F16E3 ====

Содержание индексной карты (.CUE)

REM GENRE "Rock / Alternative Rock / Gothic"REM DATE 1986REM DISCID EB12390FREM COMMENT "ExactAudioCopy v1.3"PERFORMER "Peter Murphy"TITLE "Should The World Fail To Fall Apart"REM COMPOSER "Peter Murphy"FILE "Peter Murphy - Should The World Fail To Fall Apart.flac" WAVE TRACK 01 AUDIO TITLE "Canvas Beauty (Romance Version)" PERFORMER "Peter Murphy" REM COMPOSER "Peter Murphy" INDEX 01 00:00:00 TRACK 02 AUDIO TITLE "The Light Pours Out Of Me" PERFORMER "Peter Murphy" REM COMPOSER "Peter Murphy" INDEX 01 04:47:27 TRACK 03 AUDIO TITLE "Confessions" PERFORMER "Peter Murphy" REM COMPOSER "Peter Murphy" INDEX 00 08:03:69 INDEX 01 08:04:33 TRACK 04 AUDIO TITLE "Should The World Fail To Fall Apart" PERFORMER "Peter Murphy" REM COMPOSER "Peter Murphy" INDEX 01 13:45:25 TRACK 05 AUDIO TITLE "Never Man" PERFORMER "Peter Murphy" REM COMPOSER "Peter Murphy" INDEX 00 18:33:61 INDEX 01 18:34:67 TRACK 06 AUDIO TITLE "God Sends" PERFORMER "Peter Murphy" REM COMPOSER "Peter Murphy" INDEX 00 24:48:63 INDEX 01 24:50:13 TRACK 07 AUDIO TITLE "Blue Heart" PERFORMER "Peter Murphy" REM COMPOSER "Peter Murphy" INDEX 00 30:40:03 INDEX 01 30:40:42 TRACK 08 AUDIO TITLE "The Answer Is Clear" PERFORMER "Peter Murphy" REM COMPOSER "Peter Murphy" INDEX 00 35:06:14 INDEX 01 35:08:30 TRACK 09 AUDIO TITLE "Final Solution" PERFORMER "Peter Murphy" REM COMPOSER "Peter Murphy" INDEX 01 41:35:71 TRACK 10 AUDIO TITLE "Jemal" PERFORMER "Peter Murphy" REM COMPOSER "Peter Murphy" INDEX 01 45:32:33 TRACK 11 AUDIO TITLE "Canvas Beauty (Up Version) / Bonus Track" PERFORMER "Peter Murphy" REM COMPOSER "Peter Murphy" INDEX 00 51:05:09 INDEX 01 51:07:09 TRACK 12 AUDIO TITLE "Should The World Fail To Fall Apart (Version) / Bonus Track" PERFORMER "Peter Murphy" REM COMPOSER "Peter Murphy" INDEX 00 56:16:08 INDEX 01 56:18:08 TRACK 13 AUDIO TITLE "Stay / Bonus Track" PERFORMER "Peter Murphy" REM COMPOSER "Peter Murphy" INDEX 00 60:51:09 INDEX 01 60:53:09 TRACK 14 AUDIO TITLE "Final Solution (Club Mix) / Bonus Track" PERFORMER "Peter Murphy" REM COMPOSER "Peter Murphy" INDEX 00 65:44:24 INDEX 01 65:46:23 TRACK 15 AUDIO TITLE "Tale Of The Tongue (Extended Version) / Bonus Track" PERFORMER "Peter Murphy" REM COMPOSER "Peter Murphy" INDEX 00 71:15:03 INDEX 01 71:17:00

Лог проверки качества

-----------------------
DON'T MODIFY THIS FILE
-----------------------
PERFORMER: auCDtect Task Manager, ver. 1.6.0 RC1 build 1.6.0.1Copyright (c) 2008-2010 y-soft. All rights reservedhttp://y-soft.org
ANALYZER: auCDtect: CD records authenticity detector, version 0.8.2Copyright (c) 2004 Oleg Berngardt. All rights reserved.Copyright (c) 2004 Alexander Djourik. All rights reserved.
FILE: Peter Murphy - Should The World Fail To Fall Apart.wav Size: 823028348 Hash: 75F709D7FC2EAC7DCBE9382F4D9E4AA5 Accuracy: -m8 Conclusion: CDDA 100% Signature: DB09ED2623A591EBA226AC3B09AF6D53ACC6E8D9FILE: Peter Murphy - Should The World Fail To Fall Apart.flac Size: 522880602 Hash: 75F709D7FC2EAC7DCBE9382F4D9E4AA5 Accuracy: -m8 Conclusion: CDDA 100% Signature: 7B4818F6D063AC9468A04095D466152961171B54

1988 - Love Hysteria (01:18:05)

01. All Night Long
02. His Circle And Hers Meet
03. Dragnet Drag
04. Socrates The Python
05. Indigo Eyes
06. Time Has Got Nothing To Do With It
07. Blind Sublime
08. My Last Two Weeks
09. Fun Time
Bonus Tracks:
10. Tale Of The Tongue (Single Edit)
11. I've Got A Miniature Secret Camera
12. Critic's Choice (Previously Unreleased Demo)
13. All Night Long (USA Edit)
14. Socrates The Python (Demo)
15. Fun Time (Cabaret Mix / Demo)

Лог создания рипа

Exact Audio Copy V1.3 from 2. September 2016
EAC extraction logfile from 25. September 2018, 18:23
Peter Murphy / Love Hysteria
Used drive : PLEXTOR BD-R PX-B950SA Adapter: 1 ID: 1
Read mode : SecureUtilize accurate stream : YesDefeat audio cache : YesMake use of C2 pointers : No
Read offset correction : 6Overread into Lead-In and Lead-Out : NoFill up missing offset samples with silence : YesDelete leading and trailing silent blocks : NoNull samples used in CRC calculations : YesUsed interface : Native Win32 interface for Win NT & 2000
Used output format : Internal WAV RoutinesSample format : 44.100 Hz; 16 Bit; Stereo
TOC of the extracted CD
Track | Start | Length | Start sector | End sector --------------------------------------------------------- 1 | 0:00.00 | 5:44.65 | 0 | 25864 2 | 5:44.65 | 6:01.30 | 25865 | 52969 3 | 11:46.20 | 5:49.00 | 52970 | 79144 4 | 17:35.20 | 6:41.54 | 79145 | 109273 5 | 24:16.74 | 5:54.73 | 109274 | 135896 6 | 30:11.72 | 5:19.53 | 135897 | 159874 7 | 35:31.50 | 3:55.65 | 159875 | 177564 8 | 39:27.40 | 6:37.27 | 177565 | 207366 9 | 46:04.67 | 3:50.23 | 207367 | 224639 10 | 49:55.15 | 4:23.23 | 224640 | 244387 11 | 54:18.38 | 4:26.28 | 244388 | 264365 12 | 58:44.66 | 4:36.72 | 264366 | 285137 13 | 63:21.63 | 4:01.38 | 285138 | 303250 14 | 67:23.26 | 4:55.47 | 303251 | 325422 15 | 72:18.73 | 5:46.02 | 325423 | 351374
Range status and errors
Selected range
Filename C:\Users\Alex\Desktop\Lossless Galaxy ALLexxess\Peter Murphy\2018 5 Albums (5CD Box Set Beggars Banquet)\1988 Love Hysteria\Peter Murphy - Love Hysteria.wav
Peak level 97.0 % Extraction speed 8.6 X Range quality 100.0 % Test CRC E3B4DADC Copy CRC E3B4DADC Copy OK
No errors occurred
AccurateRip summary
Track 1 not present in databaseTrack 2 not present in databaseTrack 3 not present in databaseTrack 4 not present in databaseTrack 5 not present in databaseTrack 6 not present in databaseTrack 7 not present in databaseTrack 8 not present in databaseTrack 9 not present in databaseTrack 10 not present in databaseTrack 11 not present in databaseTrack 12 not present in databaseTrack 13 not present in databaseTrack 14 not present in databaseTrack 15 not present in database
None of the tracks are present in the AccurateRip database
End of status report
---- CUETools DB Plugin V2.1.6
[CTDB TOCID: dGz0yDr._HPLL1NDXqDHQB.ilH8-] foundSubmit result: dGz0yDr._HPLL1NDXqDHQB.ilH8- has been confirmedTrack | CTDB Status 1 | (15/15) Accurately ripped 2 | (15/15) Accurately ripped 3 | (15/15) Accurately ripped 4 | (15/15) Accurately ripped 5 | (15/15) Accurately ripped 6 | (15/15) Accurately ripped 7 | (15/15) Accurately ripped 8 | (15/15) Accurately ripped 9 | (15/15) Accurately ripped 10 | (15/15) Accurately ripped 11 | (15/15) Accurately ripped 12 | (15/15) Accurately ripped 13 | (15/15) Accurately ripped 14 | (15/15) Accurately ripped 15 | (15/15) Accurately ripped
==== Log checksum 3B3324442EBD3B3F47A31CB79B6A03D0011D87C5C4E11BCA9F36FD5AE090E034 ====

Содержание индексной карты (.CUE)

REM GENRE "Rock / Alternative Rock / Gothic"REM DATE 1988REM DISCID D8124D0FREM COMMENT "ExactAudioCopy v1.3"PERFORMER "Peter Murphy"TITLE "Love Hysteria"REM COMPOSER "Peter Murphy"FILE "Peter Murphy - Love Hysteria.flac" WAVE TRACK 01 AUDIO TITLE "All Night Long" PERFORMER "Peter Murphy" REM COMPOSER "Peter Murphy" INDEX 01 00:00:00 TRACK 02 AUDIO TITLE "His Circle And Hers Meet" PERFORMER "Peter Murphy" REM COMPOSER "Peter Murphy" INDEX 01 05:44:65 TRACK 03 AUDIO TITLE "Dragnet Drag" PERFORMER "Peter Murphy" REM COMPOSER "Peter Murphy" INDEX 01 11:46:20 TRACK 04 AUDIO TITLE "Socrates The Python" PERFORMER "Peter Murphy" REM COMPOSER "Peter Murphy" INDEX 01 17:35:20 TRACK 05 AUDIO TITLE "Indigo Eyes" PERFORMER "Peter Murphy" REM COMPOSER "Peter Murphy" INDEX 00 24:16:46 INDEX 01 24:16:74 TRACK 06 AUDIO TITLE "Time Has Got Nothing To Do With It" PERFORMER "Peter Murphy" REM COMPOSER "Peter Murphy" INDEX 00 30:10:38 INDEX 01 30:11:72 TRACK 07 AUDIO TITLE "Blind Sublime" PERFORMER "Peter Murphy" REM COMPOSER "Peter Murphy" INDEX 01 35:31:50 TRACK 08 AUDIO TITLE "My Last Two Weeks" PERFORMER "Peter Murphy" REM COMPOSER "Peter Murphy" INDEX 00 39:25:48 INDEX 01 39:27:40 TRACK 09 AUDIO TITLE "Funtime" PERFORMER "Peter Murphy" REM COMPOSER "Peter Murphy" INDEX 01 46:04:67 TRACK 10 AUDIO TITLE "Tale Of The Tongue (Single Edit) / Bonus Track" PERFORMER "Peter Murphy" REM COMPOSER "Peter Murphy" INDEX 00 49:53:15 INDEX 01 49:55:15 TRACK 11 AUDIO TITLE "I’ve Got A Miniature Secret Camera / Bonus Track" PERFORMER "Peter Murphy" REM COMPOSER "Peter Murphy" INDEX 00 54:16:40 INDEX 01 54:18:38 TRACK 12 AUDIO TITLE "Critic's Choice (Previously Unreleased Demo) / Bonus Track" PERFORMER "Peter Murphy" REM COMPOSER "Peter Murphy" INDEX 00 58:42:66 INDEX 01 58:44:66 TRACK 13 AUDIO TITLE "All Night Long (USA Edit) / Bonus Track" PERFORMER "Peter Murphy" REM COMPOSER "Peter Murphy" INDEX 00 63:19:63 INDEX 01 63:21:63 TRACK 14 AUDIO TITLE "Socrates The Python (Demo) / Bonus Track" PERFORMER "Peter Murphy" REM COMPOSER "Peter Murphy" INDEX 00 67:21:26 INDEX 01 67:23:26 TRACK 15 AUDIO TITLE "Fun Time (Cabaret Mix / Demo) / Bonus Track" PERFORMER "Peter Murphy" REM COMPOSER "Peter Murphy" INDEX 00 72:16:73 INDEX 01 72:18:73

Лог проверки качества

-----------------------
DON'T MODIFY THIS FILE
-----------------------
PERFORMER: auCDtect Task Manager, ver. 1.6.0 RC1 build 1.6.0.1Copyright (c) 2008-2010 y-soft. All rights reservedhttp://y-soft.org
ANALYZER: auCDtect: CD records authenticity detector, version 0.8.2Copyright (c) 2004 Oleg Berngardt. All rights reserved.Copyright (c) 2004 Alexander Djourik. All rights reserved.
FILE: Peter Murphy - Love Hysteria.wav Size: 826434044 Hash: 53C1BF5D818FD93B9FEAD3DD7FDFA98A Accuracy: -m8 Conclusion: MPEG 95% Signature: E1C8B80AAE5C1F5FE5B7D78769DB3090BE79F9CFFILE: Peter Murphy - Love Hysteria.flac Size: 529849740 Hash: 53C1BF5D818FD93B9FEAD3DD7FDFA98A Accuracy: -m8 Conclusion: MPEG 95% Signature: 8A568074A61C21ED8CE7167575D3131C6251D08A

1989 - Deep (01:19:30)

01. Deep Ocean Vast Sea
02. Shy
03. Crystal Wrists
04. Marlene Dietrich's Favourite Poem
05. Seven Veils
06. The Line Between The Devil's Teeth (And That Which Cannot Be Repeat)
07. Cuts You Up
08. A Strange Kind Of Love (Version 1)
09. Roll Call
Bonus Tracks:
10. Roll Call (Reprise)
11. A Strange Kind Of Love (Version 2)
12. The Line Between The Devil’s Teeth (12'' Remix)
13. Cuts You Up (USA Alternate Edit)
14. A Strange Kind Of Love (Remix Edit Version)
15. Deep Ocean Vast Sea (Instrumental)

Лог создания рипа

Exact Audio Copy V1.3 from 2. September 2016
EAC extraction logfile from 25. September 2018, 17:31
Peter Murphy / Deep
Used drive : PLEXTOR BD-R PX-B950SA Adapter: 1 ID: 1
Read mode : SecureUtilize accurate stream : YesDefeat audio cache : YesMake use of C2 pointers : No
Read offset correction : 6Overread into Lead-In and Lead-Out : NoFill up missing offset samples with silence : YesDelete leading and trailing silent blocks : NoNull samples used in CRC calculations : YesUsed interface : Native Win32 interface for Win NT & 2000
Used output format : Internal WAV RoutinesSample format : 44.100 Hz; 16 Bit; Stereo
TOC of the extracted CD
Track | Start | Length | Start sector | End sector --------------------------------------------------------- 1 | 0:00.00 | 4:09.73 | 0 | 18747 2 | 4:09.73 | 4:35.58 | 18748 | 39430 3 | 8:45.56 | 4:09.05 | 39431 | 58110 4 | 12:54.61 | 5:20.60 | 58111 | 82170 5 | 18:15.46 | 5:58.41 | 82171 | 109061 6 | 24:14.12 | 5:37.11 | 109062 | 134347 7 | 29:51.23 | 5:27.13 | 134348 | 158885 8 | 35:18.36 | 3:48.02 | 158886 | 175987 9 | 39:06.38 | 6:34.54 | 175988 | 205591 10 | 45:41.17 | 8:19.21 | 205592 | 243037 11 | 54:00.38 | 5:21.05 | 243038 | 267117 12 | 59:21.43 | 7:55.24 | 267118 | 302766 13 | 67:16.67 | 4:15.30 | 302767 | 321921 14 | 71:32.22 | 3:51.26 | 321922 | 339272 15 | 75:23.48 | 4:06.03 | 339273 | 357725
Range status and errors
Selected range
Filename C:\Users\Alex\Desktop\Lossless Galaxy ALLexxess\Peter Murphy\2018 5 Albums (5CD Box Set Beggars Banquet)\1989 Deep\Peter Murphy - Deep.wav
Peak level 97.0 % Extraction speed 8.6 X Range quality 100.0 % Test CRC 766252DF Copy CRC 766252DF Copy OK
No errors occurred
AccurateRip summary
Track 1 not present in databaseTrack 2 not present in databaseTrack 3 not present in databaseTrack 4 not present in databaseTrack 5 not present in databaseTrack 6 not present in databaseTrack 7 not present in databaseTrack 8 not present in databaseTrack 9 not present in databaseTrack 10 not present in databaseTrack 11 not present in databaseTrack 12 not present in databaseTrack 13 not present in databaseTrack 14 not present in databaseTrack 15 not present in database
None of the tracks are present in the AccurateRip database
End of status report
---- CUETools DB Plugin V2.1.6
[CTDB TOCID: W19UOowZo3GjfuDwC8wy9VEM.hc-] foundSubmit result: W19UOowZo3GjfuDwC8wy9VEM.hc- has been confirmedTrack | CTDB Status 1 | (15/15) Accurately ripped 2 | (15/15) Accurately ripped 3 | (15/15) Accurately ripped 4 | (15/15) Accurately ripped 5 | (15/15) Accurately ripped 6 | (15/15) Accurately ripped 7 | (15/15) Accurately ripped 8 | (15/15) Accurately ripped 9 | (15/15) Accurately ripped 10 | (15/15) Accurately ripped 11 | (15/15) Accurately ripped 12 | (15/15) Accurately ripped 13 | (15/15) Accurately ripped 14 | (15/15) Accurately ripped 15 | (15/15) Accurately ripped
==== Log checksum 4DCADB13D3FDC342A29CAB50BAFA67D3DFB6AC341CBC7CC072E174D6DC1EE511 ====

Содержание индексной карты (.CUE)

REM GENRE "Rock / Alternative Rock / Gothic"REM DATE 1989REM DISCID D512A10FREM COMMENT "ExactAudioCopy v1.3"PERFORMER "Peter Murphy"TITLE "Deep"REM COMPOSER "Peter Murphy"FILE "Peter Murphy - Deep.flac" WAVE TRACK 01 AUDIO TITLE "Deep Ocean Vast Sea" PERFORMER "Peter Murphy" REM COMPOSER "Peter Murphy" INDEX 01 00:00:00 TRACK 02 AUDIO TITLE "Shy" PERFORMER "Peter Murphy" REM COMPOSER "Peter Murphy" INDEX 01 04:09:73 TRACK 03 AUDIO TITLE "Crystal Wrists" PERFORMER "Peter Murphy" REM COMPOSER "Peter Murphy" INDEX 00 08:43:40 INDEX 01 08:45:56 TRACK 04 AUDIO TITLE "Marlene Dietrich's Favourite Poem" PERFORMER "Peter Murphy" REM COMPOSER "Peter Murphy" INDEX 00 12:54:56 INDEX 01 12:54:61 TRACK 05 AUDIO TITLE "Seven Veils" PERFORMER "Peter Murphy" REM COMPOSER "Peter Murphy" INDEX 00 18:15:22 INDEX 01 18:15:46 TRACK 06 AUDIO TITLE "The Line Between The Devil's Teeth (And That Which Cannot Be Repeat)" PERFORMER "Peter Murphy" REM COMPOSER "Peter Murphy" INDEX 00 24:13:62 INDEX 01 24:14:12 TRACK 07 AUDIO TITLE "Cuts You Up" PERFORMER "Peter Murphy" REM COMPOSER "Peter Murphy" INDEX 00 29:50:58 INDEX 01 29:51:23 TRACK 08 AUDIO TITLE "A Strange Kind Of Love (Version One)" PERFORMER "Peter Murphy" REM COMPOSER "Peter Murphy" INDEX 00 35:17:38 INDEX 01 35:18:36 TRACK 09 AUDIO TITLE "Roll Call" PERFORMER "Peter Murphy" REM COMPOSER "Peter Murphy" INDEX 00 39:05:58 INDEX 01 39:06:38 TRACK 10 AUDIO TITLE "Roll Call (Reprise) / Bonus Track" PERFORMER "Peter Murphy" REM COMPOSER "Peter Murphy" INDEX 00 45:39:29 INDEX 01 45:41:17 TRACK 11 AUDIO TITLE "A Strange Kind Of Love (Version 2) / Bonus Track" PERFORMER "Peter Murphy" REM COMPOSER "Peter Murphy" INDEX 00 53:57:38 INDEX 01 54:00:38 TRACK 12 AUDIO TITLE "The Line Between The Devil’s Teeth (12'' Remix) / Bonus Track" PERFORMER "Peter Murphy" REM COMPOSER "Peter Murphy" INDEX 00 59:19:43 INDEX 01 59:21:43 TRACK 13 AUDIO TITLE "Cuts You Up (USA Alternate Edit) / Bonus Track" PERFORMER "Peter Murphy" REM COMPOSER "Peter Murphy" INDEX 00 67:14:67 INDEX 01 67:16:67 TRACK 14 AUDIO TITLE "A Strange Kind Of Love (Remix Edit Version) / Bonus Track" PERFORMER "Peter Murphy" REM COMPOSER "Peter Murphy" INDEX 00 71:30:22 INDEX 01 71:32:22 TRACK 15 AUDIO TITLE "Deep Ocean Vast Sea (Instrumental) / Bonus Track" PERFORMER "Peter Murphy" REM COMPOSER "Peter Murphy" INDEX 00 75:21:48 INDEX 01 75:23:48

Лог проверки качества

-----------------------
DON'T MODIFY THIS FILE
-----------------------
PERFORMER: auCDtect Task Manager, ver. 1.6.0 RC1 build 1.6.0.1Copyright (c) 2008-2010 y-soft. All rights reservedhttp://y-soft.org
ANALYZER: auCDtect: CD records authenticity detector, version 0.8.2Copyright (c) 2004 Oleg Berngardt. All rights reserved.Copyright (c) 2004 Alexander Djourik. All rights reserved.
FILE: Peter Murphy - Deep.wav Size: 841371596 Hash: 73930619BA7C3B899687D69FDD2B4F27 Accuracy: -m8 Conclusion: MPEG 95% Signature: 6EC624312E7AA4D57A4A0431581D361CDEE0097BFILE: Peter Murphy - Deep.flac Size: 574800287 Hash: 73930619BA7C3B899687D69FDD2B4F27 Accuracy: -m8 Conclusion: MPEG 95% Signature: 2710CFADC135B41A2DCCF07DCF231D74557A9B6E

1992 - Holy Smoke (01:19:46)

01. Keep Me From Harm
02. Kill The Hate
03. You're So Close
04. The Sweetest Drop
05. Low Room
06. Let Me Love You
07. Our Secret Garden
08. Dream Gone By
09. Hit Song
10. Volga Boatmen (Outro)
Bonus Tracks:
11. The Sweetest Drop (Rave Edit)
12. Cool Cool Breeze
13. You're So Close (Radio Edit)
14. The Sweetest Drop (Radio Edit 1)
15. Hit Song (Single Edit)
16. The Sweetest Drop (Rave 12'' Mix)

Лог создания рипа

Exact Audio Copy V1.3 from 2. September 2016
EAC extraction logfile from 24. September 2018, 19:56
Peter Murphy / Holy Smoke
Used drive : PLEXTOR BD-R PX-B950SA Adapter: 1 ID: 1
Read mode : SecureUtilize accurate stream : YesDefeat audio cache : YesMake use of C2 pointers : No
Read offset correction : 6Overread into Lead-In and Lead-Out : NoFill up missing offset samples with silence : YesDelete leading and trailing silent blocks : NoNull samples used in CRC calculations : YesUsed interface : Native Win32 interface for Win NT & 2000
Used output format : Internal WAV RoutinesSample format : 44.100 Hz; 16 Bit; Stereo
TOC of the extracted CD
Track | Start | Length | Start sector | End sector --------------------------------------------------------- 1 | 0:00.00 | 4:26.74 | 0 | 20023 2 | 4:26.74 | 4:48.04 | 20024 | 41627 3 | 9:15.03 | 5:29.58 | 41628 | 66360 4 | 14:44.61 | 6:55.19 | 66361 | 97504 5 | 21:40.05 | 4:22.25 | 97505 | 117179 6 | 26:02.30 | 3:33.65 | 117180 | 133219 7 | 29:36.20 | 5:44.72 | 133220 | 159091 8 | 35:21.17 | 6:04.35 | 159092 | 186426 9 | 41:25.52 | 5:30.16 | 186427 | 211192 10 | 46:55.68 | 0:50.17 | 211193 | 214959 11 | 47:46.10 | 4:08.00 | 214960 | 233559 12 | 51:54.10 | 6:28.23 | 233560 | 262682 13 | 58:22.33 | 4:06.57 | 262683 | 281189 14 | 62:29.15 | 4:03.50 | 281190 | 299464 15 | 66:32.65 | 4:44.33 | 299465 | 320797 16 | 71:17.23 | 8:28.44 | 320798 | 358941
Range status and errors
Selected range
Filename C:\Users\Alex\Desktop\Lossless Galaxy ALLexxess\Peter Murphy\2018 5 Albums (5CD Box Set Beggars Banquet)\1992 Holy Smoke\Peter Murphy - Holy Smoke.wav
Peak level 97.0 % Extraction speed 8.7 X Range quality 100.0 % Test CRC 49620D62 Copy CRC 49620D62 Copy OK
No errors occurred
AccurateRip summary
Track 1 not present in databaseTrack 2 not present in databaseTrack 3 not present in databaseTrack 4 not present in databaseTrack 5 not present in databaseTrack 6 not present in databaseTrack 7 not present in databaseTrack 8 not present in databaseTrack 9 not present in databaseTrack 10 not present in databaseTrack 11 not present in databaseTrack 12 not present in databaseTrack 13 not present in databaseTrack 14 not present in databaseTrack 15 not present in databaseTrack 16 not present in database
None of the tracks are present in the AccurateRip database
End of status report
---- CUETools DB Plugin V2.1.6
[CTDB TOCID: 2s5CfEs7QOP6moxSRBM1dpAL26o-] foundSubmit result: 2s5CfEs7QOP6moxSRBM1dpAL26o- has been confirmedTrack | CTDB Status 1 | (14/14) Accurately ripped 2 | (14/14) Accurately ripped 3 | (14/14) Accurately ripped 4 | (14/14) Accurately ripped 5 | (14/14) Accurately ripped 6 | (14/14) Accurately ripped 7 | (14/14) Accurately ripped 8 | (14/14) Accurately ripped 9 | (14/14) Accurately ripped 10 | (14/14) Accurately ripped 11 | (14/14) Accurately ripped 12 | (14/14) Accurately ripped 13 | (14/14) Accurately ripped 14 | (14/14) Accurately ripped 15 | (14/14) Accurately ripped 16 | (14/14) Accurately ripped
==== Log checksum BB7DEE2EE8EC6FE39E898F4BE4BA342ACC2CA6DE2BFEE256855A2549AA200FBA ====

Содержание индексной карты (.CUE)

REM GENRE "Rock / Alternative Rock / Gothic"REM DATE 1992REM DISCID 0412B110REM COMMENT "ExactAudioCopy v1.3"PERFORMER "Peter Murphy"TITLE "Holy Smoke"REM COMPOSER "Peter Murphy"FILE "Peter Murphy - Holy Smoke.flac" WAVE TRACK 01 AUDIO TITLE "Keep Me From Harm" PERFORMER "Peter Murphy" REM COMPOSER "Peter Murphy" INDEX 01 00:00:00 TRACK 02 AUDIO TITLE "Kill The Hate" PERFORMER "Peter Murphy" REM COMPOSER "Peter Murphy" INDEX 00 04:26:09 INDEX 01 04:26:74 TRACK 03 AUDIO TITLE "You're So Close" PERFORMER "Peter Murphy" REM COMPOSER "Peter Murphy" INDEX 01 09:15:03 TRACK 04 AUDIO TITLE "The Sweetest Drop" PERFORMER "Peter Murphy" REM COMPOSER "Peter Murphy" INDEX 00 14:44:52 INDEX 01 14:44:61 TRACK 05 AUDIO TITLE "Low Room" PERFORMER "Peter Murphy" REM COMPOSER "Peter Murphy" INDEX 00 21:38:61 INDEX 01 21:40:05 TRACK 06 AUDIO TITLE "Let Me Love You" PERFORMER "Peter Murphy" REM COMPOSER "Peter Murphy" INDEX 00 26:01:66 INDEX 01 26:02:30 TRACK 07 AUDIO TITLE "Our Secret Garden" PERFORMER "Peter Murphy" REM COMPOSER "Peter Murphy" INDEX 00 29:35:68 INDEX 01 29:36:20 TRACK 08 AUDIO TITLE "Dream Gone By" PERFORMER "Peter Murphy" REM COMPOSER "Peter Murphy" INDEX 00 35:20:09 INDEX 01 35:21:17 TRACK 09 AUDIO TITLE "Hit Song" PERFORMER "Peter Murphy" REM COMPOSER "Peter Murphy" INDEX 00 41:25:20 INDEX 01 41:25:52 TRACK 10 AUDIO TITLE "Volga Boatmen (Outro)" PERFORMER "Peter Murphy" REM COMPOSER "Peter Murphy" INDEX 00 46:54:02 INDEX 01 46:55:68 TRACK 11 AUDIO TITLE "The Sweetest Drop (Rave Edit) / Bonus Track" PERFORMER "Peter Murphy" REM COMPOSER "Peter Murphy" INDEX 00 47:44:10 INDEX 01 47:46:10 TRACK 12 AUDIO TITLE "Cool Cool Breeze / Bonus Track" PERFORMER "Peter Murphy" REM COMPOSER "Peter Murphy" INDEX 00 51:52:10 INDEX 01 51:54:10 TRACK 13 AUDIO TITLE "You're So Close (Radio Edit) / Bonus Track" PERFORMER "Peter Murphy" REM COMPOSER "Peter Murphy" INDEX 00 58:20:33 INDEX 01 58:22:33 TRACK 14 AUDIO TITLE "The Sweetest Drop (Radio Edit 1) / Bonus Track" PERFORMER "Peter Murphy" REM COMPOSER "Peter Murphy" INDEX 00 62:27:15 INDEX 01 62:29:15 TRACK 15 AUDIO TITLE "Hit Song (Single Edit) / Bonus Track" PERFORMER "Peter Murphy" REM COMPOSER "Peter Murphy" INDEX 00 66:30:65 INDEX 01 66:32:65 TRACK 16 AUDIO TITLE "The Sweetest Drop (Rave 12'' Mix) / Bonus Track" PERFORMER "Peter Murphy" REM COMPOSER "Peter Murphy" INDEX 00 71:14:56 INDEX 01 71:17:23

Лог проверки качества

-----------------------
DON'T MODIFY THIS FILE
-----------------------
PERFORMER: auCDtect Task Manager, ver. 1.6.0 RC1 build 1.6.0.1Copyright (c) 2008-2010 y-soft. All rights reservedhttp://y-soft.org
ANALYZER: auCDtect: CD records authenticity detector, version 0.8.2Copyright (c) 2004 Oleg Berngardt. All rights reserved.Copyright (c) 2004 Alexander Djourik. All rights reserved.
FILE: Peter Murphy - Holy Smoke.wav Size: 844231628 Hash: 9414936688B5EA095AC6DF7EEFBA49F8 Accuracy: -m8 Conclusion: MPEG 95% Signature: 7FBBE180D379EF68D6C79A6B50954A21BD4B460BFILE: Peter Murphy - Holy Smoke.flac Size: 573271517 Hash: 9414936688B5EA095AC6DF7EEFBA49F8 Accuracy: -m8 Conclusion: MPEG 95% Signature: 2965953E9582F5C269B19F8CAF07272E614C8FC7

1995 - Cascade (01:18:50)

01. Mirror To My Woman's Mind
02. Subway
03. Gliding Like A Whale
04. Disappearing
05. Mercy Rain
06. I'll Fall With Your Knife
07. The Scarlet Thing In You
08. Sails Wave Goodbye
09. Wild Birds Flock To Me
10. Huuvola
11. Cascade
Bonus Tracks:
12. Wild Birds Flock To Me (Production Rough Mix)
13. Groovy Place (Demo)
14. Wish (Production Rough Mix)
15. Sail On White (Production Rough Mix)
16. Satin Nights ('Cascade' Production Rough Mix)

Лог создания рипа

Exact Audio Copy V1.3 from 2. September 2016
EAC extraction logfile from 23. September 2018, 18:18
Peter Murphy / Cascade
Used drive : PLEXTOR BD-R PX-B950SA Adapter: 1 ID: 1
Read mode : SecureUtilize accurate stream : YesDefeat audio cache : YesMake use of C2 pointers : No
Read offset correction : 6Overread into Lead-In and Lead-Out : NoFill up missing offset samples with silence : YesDelete leading and trailing silent blocks : NoNull samples used in CRC calculations : YesUsed interface : Native Win32 interface for Win NT & 2000
Used output format : Internal WAV RoutinesSample format : 44.100 Hz; 16 Bit; Stereo
TOC of the extracted CD
Track | Start | Length | Start sector | End sector --------------------------------------------------------- 1 | 0:00.00 | 5:33.67 | 0 | 25041 2 | 5:33.67 | 4:35.63 | 25042 | 45729 3 | 10:09.55 | 4:23.13 | 45730 | 65467 4 | 14:32.68 | 4:55.50 | 65468 | 87642 5 | 19:28.43 | 3:43.21 | 87643 | 104388 6 | 23:11.64 | 4:30.35 | 104389 | 124673 7 | 27:42.24 | 4:22.34 | 124674 | 144357 8 | 32:04.58 | 4:44.38 | 144358 | 165695 9 | 36:49.21 | 3:47.16 | 165696 | 182736 10 | 40:36.37 | 5:53.45 | 182737 | 209256 11 | 46:30.07 | 6:10.05 | 209257 | 237011 12 | 52:40.12 | 5:05.65 | 237012 | 259951 13 | 57:46.02 | 4:16.69 | 259952 | 279220 14 | 62:02.71 | 4:11.30 | 279221 | 298075 15 | 66:14.26 | 5:21.36 | 298076 | 322186 16 | 71:35.62 | 7:14.06 | 322187 | 354742
Range status and errors
Selected range
Filename C:\Users\Alex\Desktop\Lossless Galaxy ALLexxess\Peter Murphy\2018 5 Albums (5CD Box Set Beggars Banquet)\1995 Cascade\Peter Murphy - Cascade.wav
Peak level 97.0 % Extraction speed 8.7 X Range quality 100.0 % Test CRC 0F4F03EA Copy CRC 0F4F03EA Copy OK
No errors occurred
AccurateRip summary
Track 1 not present in databaseTrack 2 not present in databaseTrack 3 not present in databaseTrack 4 not present in databaseTrack 5 not present in databaseTrack 6 not present in databaseTrack 7 not present in databaseTrack 8 not present in databaseTrack 9 not present in databaseTrack 10 not present in databaseTrack 11 not present in databaseTrack 12 not present in databaseTrack 13 not present in databaseTrack 14 not present in databaseTrack 15 not present in databaseTrack 16 not present in database
None of the tracks are present in the AccurateRip database
End of status report
---- CUETools DB Plugin V2.1.6
[CTDB TOCID: VUjalE7_SVz52Ls47ebG52QOVQw-] foundSubmit result: VUjalE7_SVz52Ls47ebG52QOVQw- has been confirmedTrack | CTDB Status 1 | (13/13) Accurately ripped 2 | (13/13) Accurately ripped 3 | (13/13) Accurately ripped 4 | (13/13) Accurately ripped 5 | (13/13) Accurately ripped 6 | (13/13) Accurately ripped 7 | (13/13) Accurately ripped 8 | (13/13) Accurately ripped 9 | (13/13) Accurately ripped 10 | (13/13) Accurately ripped 11 | (13/13) Accurately ripped 12 | (13/13) Accurately ripped 13 | (13/13) Accurately ripped 14 | (13/13) Accurately ripped 15 | (13/13) Accurately ripped 16 | (13/13) Accurately ripped
==== Log checksum C3551CACA6F5AA6DDA9EAB9D46337080F6D17660012FF49BD5F0988E4145C815 ====

Содержание индексной карты (.CUE)

REM GENRE "Rock / Alternative Rock / Gothic"REM DATE 1995REM DISCID EF127910REM COMMENT "ExactAudioCopy v1.3"PERFORMER "Peter Murphy"TITLE "Cascade"REM COMPOSER "Peter Murphy"FILE "Peter Murphy - Cascade.flac" WAVE TRACK 01 AUDIO TITLE "Mirror To My Woman's Mind" PERFORMER "Peter Murphy" REM COMPOSER "Peter Murphy" INDEX 01 00:00:00 TRACK 02 AUDIO TITLE "Subway" PERFORMER "Peter Murphy" REM COMPOSER "Peter Murphy" INDEX 00 05:32:63 INDEX 01 05:33:67 TRACK 03 AUDIO TITLE "Gliding Like A Whale" PERFORMER "Peter Murphy" REM COMPOSER "Peter Murphy" INDEX 00 10:08:30 INDEX 01 10:09:55 TRACK 04 AUDIO TITLE "Disappearing" PERFORMER "Peter Murphy" REM COMPOSER "Peter Murphy" INDEX 00 14:30:63 INDEX 01 14:32:68 TRACK 05 AUDIO TITLE "Mercy Rain" PERFORMER "Peter Murphy" REM COMPOSER "Peter Murphy" INDEX 00 19:26:07 INDEX 01 19:28:43 TRACK 06 AUDIO TITLE "I'll Fall With Your Knife" PERFORMER "Peter Murphy" REM COMPOSER "Peter Murphy" INDEX 00 23:09:28 INDEX 01 23:11:64 TRACK 07 AUDIO TITLE "The Scarlet Thing In You" PERFORMER "Peter Murphy" REM COMPOSER "Peter Murphy" INDEX 00 27:40:17 INDEX 01 27:42:24 TRACK 08 AUDIO TITLE "Sails Wave Goodbye" PERFORMER "Peter Murphy" REM COMPOSER "Peter Murphy" INDEX 00 32:03:50 INDEX 01 32:04:58 TRACK 09 AUDIO TITLE "Wild Birds Flock To Me" PERFORMER "Peter Murphy" REM COMPOSER "Peter Murphy" INDEX 00 36:46:66 INDEX 01 36:49:21 TRACK 10 AUDIO TITLE "Huuvola" PERFORMER "Peter Murphy" REM COMPOSER "Peter Murphy" INDEX 00 40:34:69 INDEX 01 40:36:37 TRACK 11 AUDIO TITLE "Cascade" PERFORMER "Peter Murphy" REM COMPOSER "Peter Murphy" INDEX 00 46:28:55 INDEX 01 46:30:07 TRACK 12 AUDIO TITLE "Wild Birds Flock To Me (Production Rough Mix) / Bonus Track" PERFORMER "Peter Murphy" REM COMPOSER "Peter Murphy" INDEX 00 52:38:29 INDEX 01 52:40:12 TRACK 13 AUDIO TITLE "Groovy Place (Demo) / Bonus Track" PERFORMER "Peter Murphy" REM COMPOSER "Peter Murphy" INDEX 00 57:44:19 INDEX 01 57:46:02 TRACK 14 AUDIO TITLE "Wish (Production Rough Mix) / Bonus Track" PERFORMER "Peter Murphy" REM COMPOSER "Peter Murphy" INDEX 00 62:01:13 INDEX 01 62:02:71 TRACK 15 AUDIO TITLE "Sail On White (Production Rough Mix) / Bonus Track" PERFORMER "Peter Murphy" REM COMPOSER "Peter Murphy" INDEX 00 66:12:43 INDEX 01 66:14:26 TRACK 16 AUDIO TITLE "Satin Nights ('Cascade' Production Rough Mix) / Bonus Track" PERFORMER "Peter Murphy" REM COMPOSER "Peter Murphy" INDEX 00 71:34:04 INDEX 01 71:35:62

Лог проверки качества

-----------------------
DON'T MODIFY THIS FILE
-----------------------
PERFORMER: auCDtect Task Manager, ver. 1.6.0 RC1 build 1.6.0.1Copyright (c) 2008-2010 y-soft. All rights reservedhttp://y-soft.org
ANALYZER: auCDtect: CD records authenticity detector, version 0.8.2Copyright (c) 2004 Oleg Berngardt. All rights reserved.Copyright (c) 2004 Alexander Djourik. All rights reserved.
FILE: Peter Murphy - Cascade.wav Size: 834355580 Hash: 423B15EF7836B23BBCE0847C50E668EC Accuracy: -m8 Conclusion: CDDA 100% Signature: F43C6F0B7AF33260DD081A0D45873FD3D403F475FILE: Peter Murphy - Cascade.flac Size: 537856981 Hash: 423B15EF7836B23BBCE0847C50E668EC Accuracy: -m8 Conclusion: CDDA 100% Signature: 7BF79E66538E5640A8FB866886A139A910A99365
Доп. информация

Об издании


Performer:
Peter Murphy
Box Set / Albums:
2018 5 Albums
1986 Should The World Fail To Fall Apart
1988 Love Hysteria; 1989 Deep
1992 Holy Smoke; 1995 Cascade
(5CD Box Set Beggars Banquet)
Info:
Beggars Banquet / Universal MCA Music
Catalog Box/Discs: BBQCD2115
Made in EU
Dynamic Range: 9 / 9 / 8 / 8 / 8
Released Year: 2018
https://www.discogs.com/Peter-Murphy-5-Albums/release/12152763


[torrentc.info]_t_5628097.torrent
Торрент: Зарегистрирован ·  [ 2018-10-15 22:25 ] ·  08bfb85e8c12be5075c3f83dea68bddb694495c9

25 KB

Статус: проверено
Скачан: 0 раз
Размер: 3.79 GB
Оценка: 
(Голосов: 0)
Сказали спасибо: 0  Спасибо
Похожие темы
[Профиль]    [ЛС]
Показать сообщения:    
Ответить на тему

Текущее время: Сегодня 14:49

Часовой пояс: GMT + 7



Вы не можете начинать темы
Вы не можете отвечать на сообщения
Вы не можете редактировать свои сообщения
Вы не можете удалять свои сообщения
Вы не можете голосовать в опросах
Вы не можете прикреплять файлы к сообщениям
Вы можете скачивать файлы