(Acid Rock, Heavy Psych, Stoner Rock) [CD] The Exploding Eyes Orchestra - Discography - 2015-2018 - 2 Albums (Svart), FLAC (tracks+.cue), lossless

Ответить на тему
Статистика раздачи [Обновить пиров]
Размер:  581 MB   |    Зарегистрирован:  1 месяц 6 дней   |    Скачан:  0 раз

Полного источника не было: Никогда

 
   
 
 
 
Автор Сообщение

torrentc.info

Создавать темы 15-Окт-2018 20:10

[Цитировать]

-The Exploding Eyes Orchestra - Discography - 2015-2018- Страна исполнителя: Finland
Жанр: Progressive Rock, Occult Psychedelic Rock, Acid Rock, Heavy Psych, Stoner Rock || Носитель: CD || Аудио кодек: FLAC ||
Тип рипа: (tracks + .cue) || Битрейт аудио: lossless || Включает: Full artwork, jpg, 600 dpi || Общая длительность: 01:24:53 ||

Об исполнителе (группе):

What started as a pastime for Jess and the Ancient Ones guitarist and songwriter Thomas Corpse has morphed into an actual band: The Exploding Eyes Orchestra. With a lineup consisting of five out of seven Jess and the Ancient Ones members, the band’s debut album, simply titled I, will hit the streets on June 12th.
According to Thomas Corpse, the idea behind the new combo was to find an outlet for material which the prolific songwriter found incompatible with the Jess and the Ancient Ones concept. The album is culled from lengthy recording sessions held in Kuopio, Finland in the winter of 2013 and 2014, and these sessions also produced another album’s worth of excellent material, which will see the light of day on the next release, II, in the spring of 2016. Despite the relaxed nature of the sessions, these are not jam-based improvisational tracks but strong, carefully planned compositions. The music is laid back and soulful, influenced by classic rock, with powerful female vocals.
What else the future might bring to The Exploding Eyes Orchestra is difficult to foretell, and Corpse likes to consider the band as a loose collective unit which doesn’t necessarily follow the traditional route of rock bands (even though they do play live and release albums) but is not a therapy session either.
[svartrecords.com]
---

2015 - I (Svart #SVR386CD)

Носитель: CD (Album, Gatefold cardboard sleeve)
Год издания оригинала: 2015
Страна - производитель диска: Finland
Издатель (лейбл): Svart Records
Номер по каталогу: SVR386CD
Продолжительность: 41:10
Источник (релизер): Моя коллекция, мой рип

Трэклист:
1. The Smoke (5:20)
2. Crazy Heart (6:01)
3. My Father The Wolf (5:20)
4. Drawing Down The West (5:37)
5. Two-Zero 13 (4:25)
6. Black Hound (6:53)
7. Farewell To All-In-One (7:34)

Лог создания рипа (09.10.2018)

Exact Audio Copy V1.3 from 2. September 2016
EAC extraction logfile from 9. October 2018, 11:47
The Exploding Eyes Orchestra / I
Used drive : ATAPI iHAS122 F Adapter: 1 ID: 0
Read mode : SecureUtilize accurate stream : YesDefeat audio cache : YesMake use of C2 pointers : No
Read offset correction : 6Overread into Lead-In and Lead-Out : NoFill up missing offset samples with silence : YesDelete leading and trailing silent blocks : NoNull samples used in CRC calculations : YesUsed interface : Native Win32 interface for Win NT & 2000Gap handling : Appended to previous track
Used output format : User Defined EncoderSelected bitrate : 1024 kBit/sQuality : HighAdd ID3 tag : YesCommand line compressor : C:\Program Files (x86)\Exact Audio Copy\Flac\flac.exeAdditional command line options : -6 -V -T "ARTIST=%artist%" -T "TITLE=%title%" -T "ALBUM=%albumtitle%" -T "DATE=%year%" -T "TRACKNUMBER=%tracknr%" -T "GENRE=%genre%" -T "COMMENT=%comment%" %hascover%--picture="%coverfile%"%hascover% %source% -o %dest%
TOC of the extracted CD
Track | Start | Length | Start sector | End sector --------------------------------------------------------- 1 | 0:00.00 | 5:20.73 | 0 | 24072 2 | 5:20.73 | 6:02.31 | 24073 | 51253 3 | 11:23.29 | 5:20.07 | 51254 | 75260 4 | 16:43.36 | 5:37.00 | 75261 | 100535 5 | 22:20.36 | 4:25.73 | 100536 | 120483 6 | 26:46.34 | 6:53.06 | 120484 | 151464 7 | 33:39.40 | 7:34.09 | 151465 | 185523
Track 1
Filename E:\Music\olaf_alien\EXPLODING EYES ORCHESTRA\2015 - I\01 - The Smoke.wav
Pre-gap length 0:00:02.00
Peak level 95.8 % Extraction speed 5.2 X Track quality 100.0 % Test CRC E3193682 Copy CRC E3193682 Accurately ripped (confidence 3) [528145A9] (AR v2) Copy OK
Track 2
Filename E:\Music\olaf_alien\EXPLODING EYES ORCHESTRA\2015 - I\02 - Crazy Heart.wav
Peak level 96.5 % Extraction speed 6.1 X Track quality 100.0 % Test CRC 653F58D7 Copy CRC 653F58D7 Accurately ripped (confidence 3) [53E2E9CD] (AR v2) Copy OK
Track 3
Filename E:\Music\olaf_alien\EXPLODING EYES ORCHESTRA\2015 - I\03 - My Father the Wolf.wav
Pre-gap length 0:00:01.04
Peak level 96.5 % Extraction speed 6.7 X Track quality 100.0 % Test CRC 4AF1A4D8 Copy CRC 4AF1A4D8 Accurately ripped (confidence 3) [35A3BF44] (AR v2) Copy OK
Track 4
Filename E:\Music\olaf_alien\EXPLODING EYES ORCHESTRA\2015 - I\04 - Drawing Down the West.wav
Peak level 96.5 % Extraction speed 6.3 X Track quality 99.9 % Test CRC 371216C9 Copy CRC 371216C9 Accurately ripped (confidence 3) [E567B9DB] (AR v2) Copy OK
Track 5
Filename E:\Music\olaf_alien\EXPLODING EYES ORCHESTRA\2015 - I\05 - Two-Zero 13.wav
Peak level 96.5 % Extraction speed 7.6 X Track quality 100.0 % Test CRC 5FF179FF Copy CRC 5FF179FF Accurately ripped (confidence 3) [2D57EB4C] (AR v2) Copy OK
Track 6
Filename E:\Music\olaf_alien\EXPLODING EYES ORCHESTRA\2015 - I\06 - Black Hound.wav
Pre-gap length 0:00:00.39
Peak level 96.5 % Extraction speed 8.2 X Track quality 100.0 % Test CRC 163E031C Copy CRC 163E031C Accurately ripped (confidence 3) [D8487AB5] (AR v2) Copy OK
Track 7
Filename E:\Music\olaf_alien\EXPLODING EYES ORCHESTRA\2015 - I\07 - Farewell to All-in-One.wav
Peak level 96.5 % Extraction speed 2.0 X Track quality 99.2 % Test CRC 649D10AF Copy CRC 649D10AF Accurately ripped (confidence 3) [76D48614] (AR v2) Copy OK
All tracks accurately ripped
No errors occurred
End of status report
---- CUETools DB Plugin V2.1.6
[CTDB TOCID: O_Be0X1FmwGALxiETYpob73QcA8-] foundSubmit result: O_Be0X1FmwGALxiETYpob73QcA8- has been confirmedTrack | CTDB Status 1 | (5/5) Accurately ripped 2 | (5/5) Accurately ripped 3 | (5/5) Accurately ripped 4 | (5/5) Accurately ripped 5 | (5/5) Accurately ripped 6 | (5/5) Accurately ripped 7 | (5/5) Accurately ripped
==== Log checksum B6D56C22629AE8FDC99F659528C005F931E0F9C2ADC9F6A0B9344674C755001C ====

Содержание индексной карты (.CUE):

REM GENRE "Psychedelic Rock"REM DATE 2015REM DISCID 4009A907REM COMMENT "ExactAudioCopy v1.3"PERFORMER "The Exploding Eyes Orchestra"TITLE "I"REM COMPOSER ""FILE "01 - The Smoke.wav" WAVE TRACK 01 AUDIO TITLE "The Smoke" PERFORMER "The Exploding Eyes Orchestra" REM COMPOSER "" INDEX 01 00:00:00FILE "02 - Crazy Heart.wav" WAVE TRACK 02 AUDIO TITLE "Crazy Heart" PERFORMER "The Exploding Eyes Orchestra" REM COMPOSER "" INDEX 01 00:00:00 TRACK 03 AUDIO TITLE "My Father the Wolf" PERFORMER "The Exploding Eyes Orchestra" REM COMPOSER "" INDEX 00 06:01:27FILE "03 - My Father the Wolf.wav" WAVE INDEX 01 00:00:00FILE "04 - Drawing Down the West.wav" WAVE TRACK 04 AUDIO TITLE "Drawing Down the West" PERFORMER "The Exploding Eyes Orchestra" REM COMPOSER "" INDEX 01 00:00:00FILE "05 - Two-Zero 13.wav" WAVE TRACK 05 AUDIO TITLE "Two-Zero 13" PERFORMER "The Exploding Eyes Orchestra" REM COMPOSER "" INDEX 01 00:00:00 TRACK 06 AUDIO TITLE "Black Hound" PERFORMER "The Exploding Eyes Orchestra" REM COMPOSER "" INDEX 00 04:25:34FILE "06 - Black Hound.wav" WAVE INDEX 01 00:00:00FILE "07 - Farewell to All-in-One.wav" WAVE TRACK 07 AUDIO TITLE "Farewell to All-in-One" PERFORMER "The Exploding Eyes Orchestra" REM COMPOSER "" INDEX 01 00:00:00

Лог проверки качества

-----------------------
DON'T MODIFY THIS FILE
-----------------------
PERFORMER: auCDtect Task Manager, ver. 1.5.1RC4 build 1.5.1.5Copyright (c) 2008-2010 y-soft. All rights reservedhttp://y-soft.org
ANALYZER: auCDtect: CD records authenticity detector, version 0.8.2Copyright (c) 2004 Oleg Berngardt. All rights reserved.Copyright (c) 2004 Alexander Djourik. All rights reserved.
FILE: 07 - Farewell to All-in-One.flac Size: 38895839 Hash: 9066A52A8DCC9796EC373499EF1D02F1 Accuracy: -m8 Conclusion: CDDA 99% Signature: 9562516B041459A53FB79C8B52912B6B3CE57647FILE: 06 - Black Hound.flac Size: 33955694 Hash: 173330FC16C3FA9206F6E1E5B1F6F0B2 Accuracy: -m8 Conclusion: CDDA 100% Signature: 6CC0D569F6BA5F3E27174AC8F7DEAA293FC01BDAFILE: 05 - Two-Zero 13.flac Size: 27572355 Hash: 51B3633E71B1EC47B48F63DC60DEBEC2 Accuracy: -m8 Conclusion: CDDA 100% Signature: 3E3EDEF8E00E60F92F8630D6DF17823FE4D6DF08FILE: 04 - Drawing Down the West.flac Size: 33807639 Hash: 9A6A5CDBC1E49F5B4D84495904634A5F Accuracy: -m8 Conclusion: CDDA 100% Signature: 91E341436181D850E2BE8E611354BA3C59CBB248FILE: 03 - My Father the Wolf.flac Size: 34015667 Hash: C00C6655F6D95AEEC684984724FBC3D4 Accuracy: -m8 Conclusion: CDDA 100% Signature: 84B3D76ECB1E7145A3133C051A5B865504D7CBF3FILE: 02 - Crazy Heart.flac Size: 36428191 Hash: EC54C8BADB417CAE59C154088843F970 Accuracy: -m8 Conclusion: CDDA 100% Signature: 62C2F7ACC27E5EA3BC1C96DE4954A65791667FCFFILE: 01 - The Smoke.flac Size: 33671048 Hash: EA01878D18922179E3010BF3AAE57C64 Accuracy: -m8 Conclusion: CDDA 100% Signature: CAAB5CB32984F9260AE09EADB7D0223DFD01373F

Лог DRM

foobar2000 1.3.16 / Замер динамического диапазона (DR) 1.1.1Дата отчёта: 2018-10-09 11:51:49
--------------------------------------------------------------------------------Анализ: The Exploding Eyes Orchestra / I--------------------------------------------------------------------------------
DR Пики RMS Продолжительность трека--------------------------------------------------------------------------------DR10 -0.37 дБ -11.33 дБ 5:21 01-The SmokeDR10 -0.30 дБ -13.11 дБ 6:02 02-Crazy HeartDR9 -0.30 дБ -11.25 дБ 5:20 03-My Father the WolfDR9 -0.30 дБ -12.13 дБ 5:37 04-Drawing Down the WestDR8 -0.30 дБ -10.55 дБ 4:26 05-Two-Zero 13DR10 -0.30 дБ -14.79 дБ 6:53 06-Black HoundDR10 -0.30 дБ -12.79 дБ 7:34 07-Farewell to All-in-One--------------------------------------------------------------------------------
Количество треков: 7Реальные значения DR: DR9
Частота: 44100 ГцКаналов: 2Разрядность: 16Битрейт: 685 кбит/сКодек: FLAC================================================================================
-

Об альбоме (сборнике):

Occult rock has seen someone what of a resurgence these past few years. With heavy hitters like the ever-mysterious Ghost, right down to the marvellous Christian Mistress, this spectre of haunting blues rock blended with magickal lyrics has made for an interesting breath of fresh air into a genre that was started
way back in the 60′s by the likes of Black Sabbath and The Crazy World of Arthur Brown.
Fully ingrained in this new wave, and formed from five of the seven members of Jess And The Ancient Ones, comes The Exploding Eyes Orchestra and their new album I.
[themonolith.com]

Состав

- Jarkko Luomajoki / Bass
- Jussuf Af Gran / Drums, Percussion
- Tommi Hoffren / Guitar, Lap Steel Guitar
- Timo K. / Keyboards, Backing Vocals
- Jasmin Saarela "Jess" / Vocals
+
- Anssi Neuvonen / Trumpet
- Brother Andy / Harmonica

2018 - II (Svart #SVART157CD)

Носитель: CD (Album)
Год издания оригинала: 2018
Страна - производитель диска: Finland
Издатель (лейбл): Svart Records
Номер по каталогу: SVART157CD
Продолжительность: 43:43
Источник (релизер): Моя коллекция, мой рип
Трэклист:
1. Those Of Us Left (7:24)
2. Belladonna (5:10)
3. Harmain (4:14)
4. The Things You Do (3:46)
5. The Birch And The Sparrow (6:29)
6. Go Go Johnny Do (6:24)
7. Love Eternal (10:16)

Лог создания рипа (10.10.2018)

Exact Audio Copy V1.3 from 2. September 2016
EAC extraction logfile from 10. October 2018, 12:17
The Exploding Eyes Orchestra / II
Used drive : ATAPI iHAS122 F Adapter: 1 ID: 0
Read mode : SecureUtilize accurate stream : YesDefeat audio cache : YesMake use of C2 pointers : No
Read offset correction : 6Overread into Lead-In and Lead-Out : NoFill up missing offset samples with silence : YesDelete leading and trailing silent blocks : NoNull samples used in CRC calculations : YesUsed interface : Native Win32 interface for Win NT & 2000Gap handling : Appended to previous track
Used output format : User Defined EncoderSelected bitrate : 1024 kBit/sQuality : HighAdd ID3 tag : YesCommand line compressor : C:\Program Files (x86)\Exact Audio Copy\Flac\flac.exeAdditional command line options : -6 -V -T "ARTIST=%artist%" -T "TITLE=%title%" -T "ALBUM=%albumtitle%" -T "DATE=%year%" -T "TRACKNUMBER=%tracknr%" -T "GENRE=%genre%" -T "COMMENT=%comment%" %hascover%--picture="%coverfile%"%hascover% %source% -o %dest%
TOC of the extracted CD
Track | Start | Length | Start sector | End sector --------------------------------------------------------- 1 | 0:01.13 | 7:24.01 | 88 | 33388 2 | 7:25.14 | 5:10.15 | 33389 | 56653 3 | 12:35.29 | 4:14.64 | 56654 | 75767 4 | 16:50.18 | 3:46.36 | 75768 | 92753 5 | 20:36.54 | 6:29.37 | 92754 | 121965 6 | 27:06.16 | 6:24.54 | 121966 | 150819 7 | 33:30.70 | 10:16.42 | 150820 | 197061
Track 1
Filename E:\Music\olaf_alien\EXPLODING EYES ORCHESTRA\2018 - II\01 - Those of Us Left.wav
Pre-gap length 0:00:03.13
Peak level 96.4 % Extraction speed 5.6 X Track quality 100.0 % Test CRC D106AE04 Copy CRC D106AE04 Track not present in AccurateRip database Copy OK
Track 2
Filename E:\Music\olaf_alien\EXPLODING EYES ORCHESTRA\2018 - II\02 - Belladonna.wav
Peak level 96.4 % Extraction speed 6.3 X Track quality 100.0 % Test CRC 28261032 Copy CRC 28261032 Track not present in AccurateRip database Copy OK
Track 3
Filename E:\Music\olaf_alien\EXPLODING EYES ORCHESTRA\2018 - II\03 - Harmain.wav
Pre-gap length 0:00:04.06
Peak level 96.4 % Extraction speed 6.6 X Track quality 100.0 % Test CRC 503C3785 Copy CRC 503C3785 Track not present in AccurateRip database Copy OK
Track 4
Filename E:\Music\olaf_alien\EXPLODING EYES ORCHESTRA\2018 - II\04 - The Things You Do.wav
Pre-gap length 0:00:01.74
Peak level 96.4 % Extraction speed 6.9 X Track quality 100.0 % Test CRC 5DD171BE Copy CRC 5DD171BE Track not present in AccurateRip database Copy OK
Track 5
Filename E:\Music\olaf_alien\EXPLODING EYES ORCHESTRA\2018 - II\05 - The Birch and the Sparrow.wav
Pre-gap length 0:00:00.27
Peak level 96.4 % Extraction speed 7.8 X Track quality 100.0 % Test CRC 0E8B778A Copy CRC 0E8B778A Track not present in AccurateRip database Copy OK
Track 6
Filename E:\Music\olaf_alien\EXPLODING EYES ORCHESTRA\2018 - II\06 - Go Go Johnny Do.wav
Pre-gap length 0:00:01.13
Peak level 96.4 % Extraction speed 8.4 X Track quality 100.0 % Test CRC C61FBC48 Copy CRC C61FBC48 Track not present in AccurateRip database Copy OK
Track 7
Filename E:\Music\olaf_alien\EXPLODING EYES ORCHESTRA\2018 - II\07 - Love Eternal.wav
Pre-gap length 0:00:00.01
Peak level 96.3 % Extraction speed 8.7 X Track quality 99.9 % Test CRC A6C619F4 Copy CRC A6C619F4 Track not present in AccurateRip database Copy OK
None of the tracks are present in the AccurateRip database
No errors occurred
End of status report
---- CUETools DB Plugin V2.1.6
[CTDB TOCID: J9RAwsOGuFLsmkHIPL4rCkGOYhM-] disk not present in databaseSubmit result: J9RAwsOGuFLsmkHIPL4rCkGOYhM- has been uploaded
==== Log checksum 7CD31C0823281E4A96E6ADEEC7D26B7854FFB445DF39160BCC74AA0A857765F4 ====

Содержание индексной карты (.CUE):

REM GENRE "Progressive Rock"REM DATE 2018REM DISCID 4D0A4207REM COMMENT "ExactAudioCopy v1.3"PERFORMER "The Exploding Eyes Orchestra"TITLE "II"REM COMPOSER ""FILE "01 - Those of Us Left.wav" WAVE TRACK 01 AUDIO TITLE "Those of Us Left" PERFORMER "The Exploding Eyes Orchestra" REM COMPOSER "" PREGAP 00:01:13 INDEX 01 00:00:00FILE "02 - Belladonna.wav" WAVE TRACK 02 AUDIO TITLE "Belladonna" PERFORMER "The Exploding Eyes Orchestra" REM COMPOSER "" INDEX 01 00:00:00 TRACK 03 AUDIO TITLE "Harmain" PERFORMER "The Exploding Eyes Orchestra" REM COMPOSER "" INDEX 00 05:06:09FILE "03 - Harmain.wav" WAVE INDEX 01 00:00:00 TRACK 04 AUDIO TITLE "The Things You Do" PERFORMER "The Exploding Eyes Orchestra" REM COMPOSER "" INDEX 00 04:12:65FILE "04 - The Things You Do.wav" WAVE INDEX 01 00:00:00 TRACK 05 AUDIO TITLE "The Birch and the Sparrow " PERFORMER "The Exploding Eyes Orchestra" REM COMPOSER "" INDEX 00 03:46:09FILE "05 - The Birch and the Sparrow.wav" WAVE INDEX 01 00:00:00 TRACK 06 AUDIO TITLE "Go Go Johnny Do" PERFORMER "The Exploding Eyes Orchestra" REM COMPOSER "" INDEX 00 06:28:24FILE "06 - Go Go Johnny Do.wav" WAVE INDEX 01 00:00:00 TRACK 07 AUDIO TITLE "Love Eternal" PERFORMER "The Exploding Eyes Orchestra" REM COMPOSER "" INDEX 00 06:24:53FILE "07 - Love Eternal.wav" WAVE INDEX 01 00:00:00

Лог проверки качества

-----------------------
DON'T MODIFY THIS FILE
-----------------------
PERFORMER: auCDtect Task Manager, ver. 1.5.1RC4 build 1.5.1.5Copyright (c) 2008-2010 y-soft. All rights reservedhttp://y-soft.org
ANALYZER: auCDtect: CD records authenticity detector, version 0.8.2Copyright (c) 2004 Oleg Berngardt. All rights reserved.Copyright (c) 2004 Alexander Djourik. All rights reserved.
FILE: 07 - Love Eternal.flac Size: 52807986 Hash: A1FCA24C48098989DA05958A20B07849 Accuracy: -m8 Conclusion: CDDA 100% Signature: 1E8F66ABD9C8A811D8478CFE4473D78CCE0BE5C5FILE: 06 - Go Go Johnny Do.flac Size: 43147219 Hash: F48E961D326C2A6D2C6BB742DDC21E67 Accuracy: -m8 Conclusion: CDDA 100% Signature: 825B80597168B7300785C8ABEC0AD1E28E756579FILE: 05 - The Birch and the Sparrow.flac Size: 41751868 Hash: 742D67520FCE207B9A6B2761CD2FFA1F Accuracy: -m8 Conclusion: CDDA 100% Signature: 93FB05267648EAE17C5B437027804AC56C20BE9AFILE: 04 - The Things You Do.flac Size: 25786413 Hash: EA45EEEED5B78936A55D9D112A8924C4 Accuracy: -m8 Conclusion: CDDA 100% Signature: EFF8FCE7920F70E5957B4C43CD88BB814C7E6BA7FILE: 03 - Harmain.flac Size: 25755824 Hash: DABDC2F38F070FBABF4E4DEF81EE1C9B Accuracy: -m8 Conclusion: CDDA 100% Signature: 418FFD8024B352702C93C4DB331B33103C2CF9D7FILE: 02 - Belladonna.flac Size: 34035148 Hash: F1FFFC582E93A6FA11F2A4DBF26964B8 Accuracy: -m8 Conclusion: CDDA 100% Signature: D531F0830F85E12B713D91201C6494DC58C52D10FILE: 01 - Those of Us Left.flac Size: 42773719 Hash: A10C86A5CDCD8968BCBF843F58F1AA43 Accuracy: -m8 Conclusion: CDDA 100% Signature: A9609A6D56BD8A0EF646344CDEB8E9D01B7D567D

Лог DRM

foobar2000 1.3.16 / Замер динамического диапазона (DR) 1.1.1Дата отчёта: 2018-10-10 12:19:44
--------------------------------------------------------------------------------Анализ: The Exploding Eyes Orchestra / II--------------------------------------------------------------------------------
DR Пики RMS Продолжительность трека--------------------------------------------------------------------------------DR10 -0.31 дБ -12.62 дБ 7:24 01-Those of Us LeftDR8 -0.31 дБ -9.70 дБ 5:10 02-BelladonnaDR10 -0.32 дБ -12.10 дБ 4:15 03-HarmainDR7 -0.31 дБ -9.40 дБ 3:46 04-The Things You DoDR6 -0.31 дБ -9.66 дБ 6:29 05-The Birch and the SparrowDR8 -0.31 дБ -10.82 дБ 6:25 06-Go Go Johnny DoDR10 -0.32 дБ -14.26 дБ 10:17 07-Love Eternal--------------------------------------------------------------------------------
Количество треков: 7Реальные значения DR: DR9
Частота: 44100 ГцКаналов: 2Разрядность: 16Битрейт: 685 кбит/сКодек: FLAC================================================================================
-

Об альбоме (сборнике):

The saga of The Exploding Eyes Orchestra began with part I in 2015 and closes with the second part, due out on October 5th 2018.
What begun as a sidetrack or a therapy group from Jess and the Ancient Ones while the band were going through a turbulent, inactive period, has since then morphed back into the mothership. The Exploding Eyes Orchestra were guitarist Thomas Corpse’s vessel for his creative endeavours while the main band laid dormant. TEEO represented a more earthy approach to psychedelic rock music, towards which JATAO then steered as well, and eventually found themselves with the exact same lineup.
“I wrote all kinds of material at home and came up with the idea to ask my fellow bandmates to join me for a session. We then went to the studio and laid down 14 tracks, half of which was released on part I in 2015”, tells Thomas Corpse, “and the rest sees the light of day now as the closing chapter is coming out. The music on this album is a bit all over the place, just like we were at the time, but in a way it manages to sound like a well thought-out album.”
With the resurgence of Jess and the Ancient Ones, The Exploding Eyes Orchestra has served its purpose and will be laid to rest with this album as its epitaph.
[svartrecords.com]

Состав

- Jarkko Luomajoki / Bass
- Jussuf Af Gran / Drums, Percussion
- Tommi Hoffren / Guitar, Backing Vocals
- Timo K. / Keyboards
- Jasmin Saarela "Jess" / Vocals
+
- Timo Ikonen / Cello
- Samuli Neuvonen / Trombone
- Kuke / Saxophone



[torrentc.info]_t_5626540.torrent
Торрент: Зарегистрирован ·  [ 2018-10-15 20:09 ] ·  21af142259919b82bd8b2c0629eabb8fdaebfbd4

14 KB

Статус: проверено
Скачан: 0 раз
Размер: 581 MB
Оценка: 
(Голосов: 0)
Сказали спасибо: 0  Спасибо
Похожие темы
[Профиль]    [ЛС]
Показать сообщения:    
Ответить на тему

Текущее время: Сегодня 17:49

Часовой пояс: GMT + 7



Вы не можете начинать темы
Вы не можете отвечать на сообщения
Вы не можете редактировать свои сообщения
Вы не можете удалять свои сообщения
Вы не можете голосовать в опросах
Вы не можете прикреплять файлы к сообщениям
Вы можете скачивать файлы