Лето 84 / Summer of 84 (Франсуа Симар / Francois Simard, Анук Висселл / Anouk Whissell, Йоанн-Карл Висселль / Yoann-Karl Whissell) [2018, США, ужасы, триллер, драма, детектив, BDRip-AVC] MVO (HDRezka Studio) + Original (Eng) + Sub (Rus, Eng)

Ответить на тему
 
Автор Сообщение

torrentc.info

Создавать темы 12-Окт-2018 23:58

[Цитировать]

Лето 84 / Summer of 84-[img=right]https://i2.imageban.ru/out/2018/10/12/ee32723a57f07...984ceb.png[/img]
Год выхода: 2018
Выпущено: Канада, США / Brightlight Pictures Inc.
Жанр: ужасы, триллер, драма, детектив
Продолжительность: 01:45:38
Перевод: Любительский (многоголосый закадровый) HDRezka Studio
Субтитры: Русские, Английские
Оригинальная аудиодорожка: Английская
Навигация по главам: Есть (8 глав)-Режиссер:
Франсуа Симар / Francois Simard, Анук Висселл / Anouk Whissell, Йоанн-Карл Висселль / Yoann-Karl Whissell-В ролях:
Грэм Верчир (Davey Armstrong), Джуда Льюис (Tommy «Eats» Eaton), Калеб Эмери (Dale «Woody» Woodworth), Кори Грютер-Эндрю (Curtis Farraday), Тиера Сковбай (Nikki Kaszuba), Рич Соммер (Wayne Mackey), Джейсон Грей-Стенфорд (Randall Armstrong), Шона Йоханнесен (Sheila Armstrong), Уильям МакДональд (Sheriff Caldwell), Харрисон Уд (Bobby Coker)-О фильме:
Четверо 15-летних друзей проводят лето 1984 года за необычным занятием: они вычисляют серийного убийцу, несколько лет подряд орудующего в округе. Все улики ведут к соседскому дому, где живёт уважаемый офицер полиции.-
| | IMDB | КиноПоиск | Сэмпл |-Качество: BDRip-AVC [Summer of 84 2018 1080p Blu-ray AVC DTS-HD 5.1 BaggerInc]
Формат файла: MKV
Видео: 1152x482 (2,40:1), 23.976 fps, x264 ~2792 kbps avg, 0.210 bit/pixel
Аудио #1: 48 kHz, AC3 Dolby Digital, 3/2 (L,C,R,l,r) + LFE ch, ~384 kbps avg (RUS)
Аудио #2: 48 kHz, AC3 Dolby Digital, 3/2 (L,C,R,l,r) + LFE ch, ~448 kbps avg (ENG)
Формат файла субтитров: Softsub (.srt*)-
[img]https://i5.imageban.ru/thumbs/2018.10.12/8e1fbdea8d9ccb88cc3b937d54edbbdf.jpg[/img]-[img]https://i5.imageban.ru/thumbs/2018.10.12/56740dd65dca2127c86ed21aba84b3fb.jpg[/img][img]https://i4.imageban.ru/thumbs/2018.10.12/ffbd71460486e795e4e1f4b467689e89.jpg[/img][img]https://i6.imageban.ru/thumbs/2018.10.12/397569888d3257ce9369788eb5925f8a.jpg[/img][img]https://i3.imageban.ru/thumbs/2018.10.12/56ced5690f581c46956f869248a4f8fc.jpg[/img]MediaInfo">

Скриншоты[img]https://i5.imageban.ru/thumbs/2018.10.12/8e1fbdea8d9ccb88cc3b937d54edbbdf.jpg[/img]-[img]https://i5.imageban.ru/thumbs/2018.10.12/56740dd65dca2127c86ed21aba84b3fb.jpg[/img][img]https://i4.imageban.ru/thumbs/2018.10.12/ffbd71460486e795e4e1f4b467689e89.jpg[/img][img]https://i6.imageban.ru/thumbs/2018.10.12/397569888d3257ce9369788eb5925f8a.jpg[/img][img]https://i3.imageban.ru/thumbs/2018.10.12/56ced5690f581c46956f869248a4f8fc.jpg[/img]MediaInfo

Полное имя                               : D:\Leto_84_2018_BDRip-AVC_[HDRezka]_by_Dalemake.mkv
Формат файла                                   : Matroska
Версия формата                           : Version 4 / Version 2
Размер файла                             : 2,73 Гбайт
Продолжительность                        : 1 ч. 45 м.
Общий поток                              : 3698 Кбит/сек
Название фильма                          : [Summer_of_84_2018__by Dalemake]
Дата кодирования                         : UTC 2018-10-12 04:52:23
Программа кодирования                    : mkvmerge v7.8.0 ('River Man') 32bit built on Apr  3 2015 12:11:22
Библиотека кодирования                   : libebml v1.3.1 + libmatroska v1.4.2
DURATION                                 : 01:40:44.581000000
NUMBER_OF_FRAMES                         : 1772
NUMBER_OF_BYTES                          : 48122
_STATISTICS_WRITING_APP                  : mkvmerge v7.8.0 ('River Man') 32bit built on Apr  3 2015 12:11:22
_STATISTICS_WRITING_DATE_UTC             : 2018-10-12 04:52:23
_STATISTICS_TAGS                         : BPS DURATION NUMBER_OF_FRAMES NUMBER_OF_BYTES
Видео
Идентификатор                            : 1
Формат файла                                   : AVC
Формат файла/Информация                        : Advanced Video Codec
Профиль формата                          : High@L4.1
Параметр CABAC формата                   : Да
Параметр ReFrames формата                : 14 кадров
Идентификатор кодека                     : V_MPEG4/ISO/AVC
Продолжительность                        : 1 ч. 45 м.
Битрейт                                  : 2792 Кбит/сек
Ширина                                   : 1152 пикселя
Высота                                   : 482 пикселя
Соотношение сторон                       : 2,40:1
Режим частоты кадров                     : Постоянный
Частота кадров                           : 23,976 кадра/сек
Цветовое пространство                    : YUV
Субдискретизация насыщенности            : 4:2:0
Битовая глубина                          : 8 бит
Тип развёртки                            : Прогрессивная
Бит/(Пиксели*Кадры)                      : 0.210
Размер потока                            : 2,06 Гбайт (76%)
Заголовок                                : [Summer_of_84_2018__by Dalemake]
Библиотека кодирования                   : x264 core 157 r2935 545de2f
Настройки программы                      : cabac=1 / ref=14 / deblock=1:-3:-2 / analyse=0x3:0x133 / me=umh / subme=10 / psy=1 / psy_rd=1.00:0.00 / mixed_ref=1 / me_range=48 / chroma_me=1 / trellis=2 / 8x8dct=1 / cqm=0 / deadzone=21,11 / fast_pskip=1 / chroma_qp_offset=-4 / threads=6 / lookahead_threads=1 / sliced_threads=0 / nr=0 / decimate=0 / interlaced=0 / bluray_compat=0 / constrained_intra=0 / bframes=12 / b_pyramid=2 / b_adapt=2 / b_bias=0 / direct=1 / weightb=1 / open_gop=0 / weightp=2 / keyint=240 / keyint_min=23 / scenecut=40 / intra_refresh=0 / rc_lookahead=60 / rc=crf / mbtree=0 / crf=18.0 / qcomp=0.60 / qpmin=0 / qpmax=69 / qpstep=4 / vbv_maxrate=50000 / vbv_bufsize=62500 / crf_max=0.0 / nal_hrd=none / filler=0 / ip_ratio=1.40 / pb_ratio=1.35 / aq=1:1.00
Язык                                     : English
Default                                  : Да
Forced                                   : Нет
DURATION                                 : 01:45:36.299000000
NUMBER_OF_FRAMES                         : 151919
NUMBER_OF_BYTES                          : 2268233535
_STATISTICS_WRITING_APP                  : mkvmerge v7.8.0 ('River Man') 32bit built on Apr  3 2015 12:11:22
_STATISTICS_WRITING_DATE_UTC             : 2018-10-12 04:52:23
_STATISTICS_TAGS                         : BPS DURATION NUMBER_OF_FRAMES NUMBER_OF_BYTES
Аудио #1
Идентификатор                            : 2
Формат файла                                   : AC-3
Формат файла/Информация                        : Audio Coding 3
Расширение режима                        : CM (complete main)
Параметр Endianness формата              : Big
Идентификатор кодека                     : A_AC3
Продолжительность                        : 1 ч. 45 м.
Вид битрейта                             : Постоянный
Битрейт                                  : 384 Кбит/сек
Каналы                                   : 6 каналов
Расположение каналов                     : Front: L C R, Side: L R, LFE
Частота                                  : 48,0 КГц
Метод сжатия                             : С потерями
Размер потока                            : 290 Мбайт (10%)
Заголовок                                : MVO - HDRezka Studio
Язык                                     : Russian
Default                                  : Да
Forced                                   : Нет
Аудио #2
Идентификатор                            : 3
Формат файла                                   : AC-3
Формат файла/Информация                        : Audio Coding 3
Расширение режима                        : CM (complete main)
Параметр Endianness формата              : Big
Идентификатор кодека                     : A_AC3
Продолжительность                        : 1 ч. 45 м.
Вид битрейта                             : Постоянный
Битрейт                                  : 448 Кбит/сек
Каналы                                   : 6 каналов
Расположение каналов                     : Front: L C R, Side: L R, LFE
Частота                                  : 48,0 КГц
Метод сжатия                             : С потерями
Размер потока                            : 338 Мбайт (12%)
Заголовок                                : Original
Язык                                     : English
Default                                  : Нет
Forced                                   : Нет
Текст #1
Идентификатор                            : 4
Формат файла                                   : UTF-8
Идентификатор кодека                     : S_TEXT/UTF8
Идентификатор кодека/Информация          : UTF-8 Plain Text
Заголовок                                : Full
Язык                                     : Russian
Default                                  : Нет
Forced                                   : Нет
Текст #2
Идентификатор                            : 5
Формат файла                                   : UTF-8
Идентификатор кодека                     : S_TEXT/UTF8
Идентификатор кодека/Информация          : UTF-8 Plain Text
Заголовок                                : Full
Язык                                     : English
Default                                  : Нет
Forced                                   : Нет
Меню
00:00:00.000                             : en:Chapter 1
00:20:01.200                             : en:Chapter 2
00:40:02.400                             : en:Chapter 3
01:00:04.601                             : en:Chapter 4
01:20:04.799                             : en:Chapter 5
01:30:06.401                             : en:Chapter 6
01:41:03.057                             : en:Chapter 7
01:45:36.330                             : en:Chapter 8
-
[Профиль]    [ЛС]
Показать сообщения:    
Ответить на тему

Текущее время: Сегодня 16:54

Часовой пояс: GMT + 7



Вы не можете начинать темы
Вы не можете отвечать на сообщения
Вы не можете редактировать свои сообщения
Вы не можете удалять свои сообщения
Вы не можете голосовать в опросах
Вы не можете прикреплять файлы к сообщениям
Вы не можете скачивать файлы