Марио / Mario (Марсель Гислер / Marcel Gisler) [2018, Швейцария, драма, мелодрама, спорт, гей-тема, DVDRip-AVC] VO (RiN) + Original Deu + Sub (Rus, Eng, Fra)

Ответить на тему
 
Автор Сообщение

torrentc.info

Создавать темы 12-Окт-2018 22:39

[Цитировать]

Марио / Mario
Страна: Швейцария
Год выхода: 2018
Жанр: драма, мелодрама, спорт, гей-тема
Продолжительность: 01:58:38
Перевод: Одноголосый закадровый (озвучка - RiN, субтитры - rw18, рип - Kissy69)
Режиссёр: Марсель Гислер / Marcel Gisler
В ролях: Макс Хубахер (Марио), Аарон Альтарас (Леон), Джесси Моравец, Юрген Плюсс, Доро Мюгглер, Андреас Матти, Йорис Гратволь, Шервин Амини, Фабрицио Борсани, Юлиан Кохлин, Беат Марти
Описание: В центре сюжета - молодые люди, занимающиеся видом спорта, через который ретранслируются окостеневшие представления о мужественности. Марио - лучший бомбардир в юношеской команде. В следующем сезоне он мечтает стать профессиональным футболистом в команде высшего дивизиона. Он влюбляется в новичка команды Леона, с которым они снимают квартиру. Вскоре конкуренты Марио распространяют слухи о его нетрадиционной ориентации. Парни хотят быть вместе, но один готов публично признаться в своей ориентации, а другой нет (у Марио даже есть псевдоподруга). Героя ставят перед выбором: личная жизнь или спортивные блеск и слава, любовь или футбол. Марио должен принять решение, так как мир футбола очень консервативен по сравнению с остальным миром.
По мнению многих критиков, это лучший ЛГБТ-фильм 2018 г (что подтверждает и высокий рейтинг IMDb) .
Сэмпл: https://www.sendspace.com/file/qpxiev
Качество видео: DVDRip-AVC
Формат файла: MKV
Видео: AVC; 720x556@1024x556 ((1,85:1); 25 кадров/сек; 1198 Кбит/сек
Аудио 1: AC3; 48 КГц; 256 Кбит/сек; 6 каналов; VO (Русский)
Аудио 2: AC3; 48 КГц; 192 Кбит/сек; 2 канала; Оригинал (Немецкий)
Субтитры 1: русские (отключаемые, SRT)
Субтитры 2: английские (отключаемые, SRT)
Субтитры 3: французские (отключаемые, SRT)

MediaInfo

Общее
Формат файла : Matroska
Версия формата : Version 4 / Version 2
Размер файла : 1,37 Гбайт
Продолжительность : 1 ч. 58 м.
Общий поток : 1649 Кбит/сек
Дата кодирования : UTC 2018-10-06 23:55:01
Программа кодирования : mkvmerge v24.0.0 ('Beyond The Pale') 32-bit
Библиотека кодирования : libebml v1.3.6 + libmatroska v1.4.9
Видео
Идентификатор : 1
Формат файла : AVC
Формат файла/Информация : Advanced Video Codec
Профиль формата : High@L3.1
Настройки формата : CABAC / 11 Ref Frames
Параметр CABAC формата : Да
Параметр RefFrames формата : 11 кадров
Идентификатор кодека : V_MPEG4/ISO/AVC
Продолжительность : 1 ч. 58 м.
Битрейт : 1198 Кбит/сек
Ширина : 720 пикселей
Высота : 556 пикселей
Соотношение сторон : 1,85:1
Режим частоты кадров : Постоянный
Частота кадров : 25,000 кадров/сек
Цветовое пространство : YUV
Субдискретизация насыщенности : 4:2:0
Битовая глубина : 8 бит
Тип развёртки : Прогрессивная
Бит/(Пиксели*Кадры) : 0.120
Размер потока : 1017 Мбайт (73%)
Библиотека кодирования : x264 core 142 r2479 dd79a61
Настройки программы : cabac=1 / ref=11 / deblock=1:-1:-1 / analyse=0x3:0x133 / me=umh / subme=10 / psy=1 / psy_rd=1.00:0.15 / mixed_ref=1 / me_range=24 / chroma_me=1 / trellis=2 / 8x8dct=1 / cqm=0 / deadzone=21,11 / fast_pskip=1 / chroma_qp_offset=-3 / threads=12 / lookahead_threads=2 / sliced_threads=0 / nr=0 / decimate=1 / interlaced=0 / bluray_compat=0 / constrained_intra=0 / bframes=8 / b_pyramid=2 / b_adapt=2 / b_bias=0 / direct=3 / weightb=1 / open_gop=0 / weightp=2 / keyint=250 / keyint_min=25 / scenecut=40 / intra_refresh=0 / rc_lookahead=60 / rc=crf / mbtree=1 / crf=18.0 / qcomp=0.60 / qpmin=0 / qpmax=69 / qpstep=4 / vbv_maxrate=17500 / vbv_bufsize=17500 / crf_max=0.0 / nal_hrd=none / filler=0 / ip_ratio=1.40 / aq=1:1.00
Default : Да
Forced : Нет
Цветовой диапазон : Limited
Основные цвета : BT.601 PAL
Характеристики трансфера : BT.709
Коэффициенты матрицы : BT.601
Аудио #1
Идентификатор : 2
Формат файла : AC-3
Формат файла/Информация : Audio Coding 3
Идентификатор кодека : A_AC3
Продолжительность : 1 ч. 58 м.
Вид битрейта : Постоянный
Битрейт : 256 Кбит/сек
Каналы : 6 каналов
Расположение каналов : Front: L C R, Side: L R, LFE
Частота : 48,0 КГц
Частота кадров : 31,250 кадров/сек (1536 SPF)
Битовая глубина : 16 бит
Метод сжатия : С потерями
Размер потока : 217 Мбайт (16%)
Заголовок : Озвучка от RiN
Язык : Russian
ServiceKind/String : Complete Main
Default : Да
Forced : Нет
Аудио #2
Идентификатор : 3
Формат файла : AC-3
Формат файла/Информация : Audio Coding 3
Идентификатор кодека : A_AC3
Продолжительность : 1 ч. 58 м.
Вид битрейта : Постоянный
Битрейт : 192 Кбит/сек
Каналы : 2 канала
Расположение каналов : Front: L R
Частота : 48,0 КГц
Частота кадров : 31,250 кадров/сек (1536 SPF)
Битовая глубина : 16 бит
Метод сжатия : С потерями
Размер потока : 163 Мбайт (12%)
Язык : German
ServiceKind/String : Complete Main
Default : Нет
Forced : Нет
Текст #1
Идентификатор : 4
Формат файла : UTF-8
Идентификатор кодека : S_TEXT/UTF8
Идентификатор кодека/Информация : UTF-8 Plain Text
Продолжительность : 1 ч. 54 м.
Битрейт : 73 бит/сек
ElementCount : 1116
Размер потока : 61,9 Кбайт (0%)
Заголовок : rw18
Язык : Russian
Default : Нет
Forced : Нет
Текст #2
Идентификатор : 5
Формат файла : UTF-8
Идентификатор кодека : S_TEXT/UTF8
Идентификатор кодека/Информация : UTF-8 Plain Text
Продолжительность : 1 ч. 53 м.
Битрейт : 41 бит/сек
ElementCount : 1114
Размер потока : 34,2 Кбайт (0%)
Язык : English
Default : Нет
Forced : Нет
Текст #3
Идентификатор : 6
Формат файла : UTF-8
Идентификатор кодека : S_TEXT/UTF8
Идентификатор кодека/Информация : UTF-8 Plain Text
Продолжительность : 1 ч. 53 м.
Битрейт : 46 бит/сек
ElementCount : 1115
Размер потока : 38,4 Кбайт (0%)
Язык : French
Default : Нет
Forced : Нет
Если у кого есть желание ознакомиться с другими художественными и документальными фильмами , сериалами , мультфильмами и аниме, передачами по ЛГБТ-тематике , то на трекере есть тема ЛГБТ в кинематографе .
[Профиль]    [ЛС]
Показать сообщения:    
Ответить на тему

Текущее время: Сегодня 14:29

Часовой пояс: GMT + 7



Вы не можете начинать темы
Вы не можете отвечать на сообщения
Вы не можете редактировать свои сообщения
Вы не можете удалять свои сообщения
Вы не можете голосовать в опросах
Вы не можете прикреплять файлы к сообщениям
Вы не можете скачивать файлы