Сделай мне больно (Александр Исаев) [1993, Криминальная драма, VHSRip]

Ответить на тему
Статистика раздачи [Обновить пиров]
Размер:  1.09 GB   |    Зарегистрирован:  11 дней   |    Скачан:  0 раз

Полного источника не было: Никогда

 
   
 
 
 
Автор Сообщение

torrentc.info

Создавать темы 12-Окт-2018 22:39

[Цитировать]

Сделай мне больно
[img=right]https://i6.imageban.ru/out/2018/10/12/b883eb661722e...4738c0.jpg[/img]
Жанр: Криминальная драма
Год выхода: 1993
Продолжительность: 01:10:25
Режиссёр: Александр Исаев
В ролях: Анна Самохина, Николай Еременко (младший), Вячеслав Разбегаев, Игорь Верник, Александр Панкратов-Черный, Виктор Авилов, Татьяна Ипатова, Павел Соколов, Александр Гловяк, Юрий Невгамонный, Наталья Батрак, Николай Еременко (старший), Татьяна Маркова, Оксана Бурлай-Питерова
Описание: Жестокие гримасы нашего безумного времени странно отражаются в судьбах людей. Почему мечтам не суждено сбыться?
У молодой талантливой актрисы Веры Самариной есть интересная работа, известность, планы на будущее и любящий муж Игорь. Она уезжает на съемки, оставив своего мужа, безработного актера, одного. Отчаявшись, Игорь принимает предложение стать рэкетиром, однако не подозревает о неминуемом трагическом конце.
Пока молодая женщина разбирается в своих душевных переживаниях на съемочной площадке у моря, ее муж специализируется на выбивании чужих долгов и прочих не шибко законных и опасных мероприятиях. Осознав, наконец, светлую любовь к мужу, кинозвезда возвращается домой...
Доп. информация: Оцифровка VHS (личный архив) и получение VHSRip alenavova
Эксклюзив для Torrentc. При размещении данного релиза на других сайтах ссылка на автора alenavova обязательна.


Сэмпл: https://yadi.sk/i/1_xLtRFhE85y7g
Качество видео: VHSRip
Формат файла: AVI
Видео: 704x528 (1.33:1), 25 fps, XviD build 73 ~2010 kbps avg, 0.22 bit/pixel
Аудио: 48 kHz, AC3 Dolby Digital, 2/0 (L,R) ch, ~192 kbps

MediaInfo

Сделай мне больно [by alenavova].avi
Format : AVI
Format/Info : Audio Video Interleave
File size : 1.09 GiB
Duration : 1 h 10 min
Overall bit rate : 2 213 kb/s
Movie name : Сделай мне больно [by alenavova]
Director : by alenavova
Writing application : VirtualDubMod 1.5.10.3 | www.virtualdub-fr.org || (build 2550/release)
Copyright : Edich2
Comment : Torrentc
Video
ID : 0
Format : MPEG-4 Visual
Format profile : Advanced Simple@L5
Format settings : BVOP2 / Custom Matrix
Format settings, BVOP : 2
Format settings, QPel : No
Format settings, GMC : No warppoints
Format settings, Matrix : Custom
Codec ID : XVID
Codec ID/Hint : XviD
Duration : 1 h 10 min
Bit rate : 2 011 kb/s
Width : 704 pixels
Height : 528 pixels
Display aspect ratio : 4:3
Frame rate : 25.000 FPS
Color space : YUV
Chroma subsampling : 4:2:0
Bit depth : 8 bits
Scan type : Progressive
Compression mode : Lossy
Bits/(Pixel*Frame) : 0.216
Stream size : 1 013 MiB (91%)
Writing library : XviD 73
Audio
ID : 1
Format : AC-3
Format/Info : Audio Coding 3
Codec ID : 2000
Duration : 1 h 10 min
Bit rate mode : Constant
Bit rate : 192 kb/s
Channel(s) : 2 channels
Channel positions : Front: L R
Sampling rate : 48.0 kHz
Frame rate : 31.250 FPS (1536 SPF)
Bit depth : 16 bits
Compression mode : Lossy
Stream size : 96.7 MiB (9%)
Alignment : Split accross interleaves
Interleave, duration : 40 ms (1.00 video frame)
Interleave, preload duratio : 500 ms
Service kind : Complete Main


[torrentc.info]_t_5627409.torrent
Торрент: Зарегистрирован ·  [ 2018-10-12 22:36 ] ·  901c49568be653be205fd455619a49caa441e3dd

11 KB

Статус: проверено
Скачан: 0 раз
Размер: 1.09 GB
Оценка: 
(Голосов: 0)
Сказали спасибо: 0  Спасибо
Похожие темы
[Профиль]    [ЛС]
Показать сообщения:    
Ответить на тему

Текущее время: Сегодня 12:24

Часовой пояс: GMT + 7



Вы не можете начинать темы
Вы не можете отвечать на сообщения
Вы не можете редактировать свои сообщения
Вы не можете удалять свои сообщения
Вы не можете голосовать в опросах
Вы не можете прикреплять файлы к сообщениям
Вы можете скачивать файлы