Знать правду / At kende sandheden / Facing the Truth (Нильс Мальмрос / Nils Malmros) [2002, Дания, драма, триллер, DVDRip] VO (Юрий Медведев)

Ответить на тему
Статистика раздачи [Обновить пиров]
Размер:  1.47 GB   |    Зарегистрирован:  2 месяца 4 дня   |    Скачан:  1 раз

Полного источника не было: 1 месяц 27 дней

 
   
 
 
 
Автор Сообщение

torrentc.info

Создавать темы 12-Окт-2018 22:39

[Цитировать]

Знать правду / At kende sandheden / Facing the Truth
Страна: Дания
Жанр: драма, триллер
Год выхода: 2002
Продолжительность: 01:34:01
Перевод: Одноголосый закадровый Юрий Медведев
Субтитры: нет
Режиссер: Нильс Мальмрос / Nils Malmros
В ролях: Йенс Альбинус, Майкл Асмуссен, Лона Росгаард, Нина Карен, Марианна Хагер, Сорен Сердженсен, Оле Джеконсен, Анетт Бекер, Бирте Нойманн
Описание: 1944 год. Дания, оккупированная нацистами. Хирург Рихард Мальмрос осуществляет молодому парню успешную нейрохирургическую операцию, используя вещество для рентгена торотраст. Спустя 40 лет пациент умирает от рака, а его вдова выдвигает к больнице судебный иск, утверждая, что это вещество стало причиной его болезни и смерти. Пожилой Мальмрос, отличающийся самокопанием и готовый нести ответственность за свои действия, с помощью сына Нильса восстанавливает хронологию событий тех лет. Параллельно с этим он вспоминает о своем детстве и о том, как пришел в профессию нейрохирурга. В это же время известный датский журналист начинает собственное расследование, обличающее Рихарда Мальмроса и его коллег ...
Сэмпл: http://multi-up.com/1211590
Качество видео: DVDRip (Источник: Torrentc - DVD9)
Формат файла: AVI
Видео: XviD 73, 720x304, (2,35:1), 25,000 fps, 1784 Кбит/с, 8 бит
Аудио: Русский (АС3, 6 ch (Front: L C R, Side: L R, LFE), 48,0 KHz, 448 Kbps)

MediaInfo

ОбщееПолное имя : D:\Знать правду (триллер, драма 2002 год).aviФормат файла : AVIФормат файла/Информация : Audio Video InterleaveРазмер файла : 1,47 ГбайтПродолжительность : 1 ч. 34 м.Общий поток : 2242 Кбит/секПрограмма кодирования : VirtualDubMod 1.5.10.3 | www.virtualdub-fr.org || (build 2550/release)Библиотека кодирования : VirtualDubMod build 2550/release
ВидеоИдентификатор : 0Формат файла : MPEG-4 VisualПрофиль формата : Advanced Simple@L5Параметр BVOP формата : 2Параметр QPel формата : НетПараметр GMC формата : Без точки переходаПараметр матрицы формата : ВыборочнаяИдентификатор кодека : XVIDИдентификатор кодека/Подсказка : XviDПродолжительность : 1 ч. 34 м.Битрейт : 1784 Кбит/секШирина : 704 пикселяВысота : 304 пикселяСоотношение сторон : 2,35:1Частота кадров : 25,000 кадров/секЦветовое пространство : YUVСубдискретизация насыщенности : 4:2:0Битовая глубина : 8 битТип развёртки : ПрогрессивнаяМетод сжатия : С потерямиБит/(Пиксели*Кадры) : 0.333Размер потока : 1,17 Гбайт (80%)Библиотека кодирования : XviD 73
АудиоИдентификатор : 1Формат файла : AC-3Формат файла/Информация : Audio Coding 3Расширение режима : CM (complete main)Параметр Endianness формата : BigИдентификатор кодека : 2000Продолжительность : 1 ч. 34 м.Вид битрейта : ПостоянныйБитрейт : 448 Кбит/секКаналы : 6 каналовРасположение каналов : Front: L C R, Side: L R, LFEЧастота : 48,0 КГцЧастота кадров : 31,250 кадров/сек (1536 spf)Метод сжатия : С потерямиРазмер потока : 301 Мбайт (20%)Выравнивание : Разделение по промежуткамПродолжительность промежутка : 40 мс. (1,00 видеокадр)Время предзагрузки промежутка : 500 мс.

Скриншоты



[torrentc.info]_t_5627392.torrent
Торрент: Зарегистрирован ·  [ 2018-10-12 22:36 ] ·  326cf3ebc3d4a24fd21cd77ae52635e197bfa153

15 KB

Статус: проверено
Скачан: 1 раз
Размер: 1.47 GB
Оценка: 
(Голосов: 0)
Сказали спасибо: 0  Спасибо
Похожие темы
[Профиль]    [ЛС]
Показать сообщения:    
Ответить на тему

Текущее время: Сегодня 14:45

Часовой пояс: GMT + 7



Вы не можете начинать темы
Вы не можете отвечать на сообщения
Вы не можете редактировать свои сообщения
Вы не можете удалять свои сообщения
Вы не можете голосовать в опросах
Вы не можете прикреплять файлы к сообщениям
Вы можете скачивать файлы