Диллинджер и Капоне / Dillinger and Capone (Джон Перди / Jon Purdy) [1995, США, Боевик, драма, криминал, DVDRip] AVO (Сергей Визгунов) + Original Eng

Ответить на тему
Статистика раздачи [Обновить пиров]
Размер:  1.4 GB   |    Зарегистрирован:  7 дней   |    Скачан:  1 раз

Полного источника не было: 6 дней

 
   
 
 
 
Автор Сообщение

torrentc.info

Создавать темы 12-Окт-2018 22:39

[Цитировать]

Диллинджер и Капоне / Dillinger and Capone
[img=right]https://i1.imageban.ru/out/2018/10/12/5bc24f6f50e96...e728fe.jpg[/img]
Страна: США
Жанр: Боевик, драма, криминал
Год выхода: 1995
Продолжительность: 01:30:39
Перевод: Авторский (одноголосый закадровый) Сергей Визгунов
Субтитры: нет
Оригинальная аудиодорожка: английский
Режиссер: Джон Перди / Jon Purdy
В ролях: Мартин Шин, Ф. Мюррей Абрахам, Кэтрин Хикс, Стивен Дэвис, Саша Дженсон, Джеффри Комбс, Майкл С. Гуинн, Энтони Кривелло, Джо Эстевес, Берт Ремсен, Майкл Оливер, Клинт Хауард, Тайм Уинтерс
Описание: По официальной версии, Джон Диллинджер был убит агентами ФБР при выходе из кинотеатра после того, как о его местонахождении сообщила его тогдашняя подруга. В соответствии же с сюжетом фильма Диллинджер остался в живых, поскольку был убит другой, похожий на него человек. Услуги Диллинджера потребовались Аль Капоне после выхода последнего из тюрьмы. Капоне потерял влияние и ему срочно необходимо достать крупную сумму денег, спрятанную в недоступном теперь ему помещении. Он берёт в заложники семью Диллинджера, заставляя того выполнить эту работу…
Доп. информация: Дорожка с С. Визгуновым ремастерирована, синхронизирована и наложена ale_x2008 при помощи Adobe Audition, Sony Vegas и VirtualDubMod.
За оцифрованную с VHS дорожку благодарим - Raptorio Rio


Сэмпл: https://yadi.sk/i/QIzeeSaw3PJ_CQ
Качество видео: DVDRip
Формат файла: AVI
Видео: XviD build 73, 704x528 (1.33:1), 25 fps, 1804 kbps avg, 0.19 bit/pixel
Аудио: AC3 Dolby Digital, 48000Hz 2/0 (L,R) ch (mono), 192 kbps avg
Аудио 2: AC3 Dolby Digital, 48000Hz 2/0 (L,R) ch, 192 kbps avg

MediaInfo

Диллинджер и Капоне - Dillinger and Capone (by ale_x2008).aviFormat : AVIFormat/Info : Audio Video InterleaveFile size : 1.40 GiBDuration : 1 h 30 minOverall bit rate : 2 203 kb/sMovie name : Диллинджер и Капоне - Dillinger and Capone (by ale_x2008)Director : by ale_x2008Writing application : VirtualDubMod 1.5.10.2 (build 2540/release)Copyright : Edich2Comment : Torrentc
VideoID : 0Format : MPEG-4 VisualFormat profile : Advanced Simple@L5Format settings : BVOP2 / Custom MatrixFormat settings, BVOP : 2Format settings, QPel : NoFormat settings, GMC : No warppointsFormat settings, Matrix : CustomCodec ID : XVIDCodec ID/Hint : XviDDuration : 1 h 30 minBit rate : 1 805 kb/sWidth : 704 pixelsHeight : 528 pixelsDisplay aspect ratio : 4:3Frame rate : 25.000 FPSColor space : YUVChroma subsampling : 4:2:0Bit depth : 8 bitsScan type : ProgressiveCompression mode : LossyBits/(Pixel*Frame) : 0.194Stream size : 1.14 GiB (82%)Writing library : XviD 73
Audio #1ID : 1Format : AC-3Format/Info : Audio Coding 3Codec ID : 2000Duration : 1 h 30 minBit rate mode : ConstantBit rate : 192 kb/sChannel(s) : 2 channelsChannel positions : Front: L RSampling rate : 48.0 kHzFrame rate : 31.250 FPS (1536 SPF)Bit depth : 16 bitsCompression mode : LossyStream size : 125 MiB (9%)Alignment : Split accross interleavesInterleave, duration : 40 ms (1.00 video frame)Interleave, preload duratio : 500 msService kind : Complete Main
Audio #2ID : 2Format : AC-3Format/Info : Audio Coding 3Codec ID : 2000Duration : 1 h 30 minBit rate mode : ConstantBit rate : 192 kb/sChannel(s) : 2 channelsChannel positions : Front: L RSampling rate : 48.0 kHzFrame rate : 31.250 FPS (1536 SPF)Bit depth : 16 bitsCompression mode : LossyStream size : 124 MiB (9%)Alignment : Split accross interleavesInterleave, duration : 40 ms (1.00 video frame)Interleave, preload duratio : 500 msService kind : Complete Main


[torrentc.info]_t_5627496.torrent
Торрент: Зарегистрирован ·  [ 2018-10-12 22:36 ] ·  e9ac5e4aeca47f0d39137bf634f8c401cd27c997

14 KB

Статус: проверено
Скачан: 1 раз
Размер: 1.4 GB
Оценка: 
(Голосов: 0)
Сказали спасибо: 0  Спасибо
Похожие темы
[Профиль]    [ЛС]
Показать сообщения:    
Ответить на тему

Текущее время: Сегодня 10:19

Часовой пояс: GMT + 7



Вы не можете начинать темы
Вы не можете отвечать на сообщения
Вы не можете редактировать свои сообщения
Вы не можете удалять свои сообщения
Вы не можете голосовать в опросах
Вы не можете прикреплять файлы к сообщениям
Вы можете скачивать файлы