Розовая серия / Серия Роза / Serie rose / Сезон: 1 / Серии: 1, 3 из 27 (Гарри Кюмель / Harry Kumel, Ален Шварцштайн / Alain Schwartzstein) [1986, 1990, Франция, комедия, эротика, VHSRip] VO

Ответить на тему
Статистика раздачи [Обновить пиров]
Размер:  751 MB   |    Зарегистрирован:  10 дней   |    Скачан:  1 раз

Полного источника не было: 6 дней

 
   
 
 
 
Автор Сообщение

torrentc.info

Создавать темы 12-Окт-2018 19:08

[Цитировать]

Розовая серия / Серия Роза / Série rose
Год выхода: 1986, 1990
Страна: Франция
Жанр: комедия, эротика
Продолжительность: 00:28:53, 00:23:21
Перевод: одноголосый закадровый неизвестной Дамы
Режиссёр: Гарри Кюмель /Harry Kumel/, Ален Шварцштайн /Alain Schwartzstein/
В ролях: Эрик Бурк /Erik Burke/, Агнес Кассандре /Agnes Cassandre/, Жан-Пьер Кальфон /Jean-Pierre Kalfon/, Майкл Лииз /Michael Lees/, Катрин Лепренс /Catherine Leprince/, Катрин Лашанс /Catherine Lachens/, Серж Аведикян /Serge Avedikian/...
Описание из кинопоиска.ру: Эта «серия» представляет собой адаптированную экранизацию эротических рассказов из литературы восемнадцатого века до наших дней.
Доп. информация: в раздаче две короткометражки по мотивам произведений Никола Ретифа де ла Бретонна /"Обучение"/ и Маркиза де Сада /"Августина"/
оцифровал и подготовил [url=profile.php?mode=viewprofile&u=5358528]karlll[/url]. окончание второй серии обрезано!
Качество: VHSRip ~Сэмпл~
Формат файла: AVI
Видео: 672x528 (1.27:1), 25 fps, XviD build 73 ~1783 kbps avg, 0.20 bit/pixel / ~1837 kbps avg, 0.21 bit/pixel
Аудио: 48 kHz, AC3 Dolby Digital, 2/0 (L,R) ch, ~192 kbps
Субтитры: "Отсутствуют"
Реклама: "Отсутствует"

Список серий

Обучение /L'eleve/
Августина /Augustine/

MediaInfo

Формат файла : AVI
Формат файла/Информация : Audio Video Interleave
Размер файла : 410 Мбайт
Продолжительность : 28 м.
Общий поток : 1985 Кбит/сек
Название фильма : Serie rose: L'eleve (1986)
Программа кодирования : VirtualDubMod 1.5.10.3 | www.virtualdub-fr.org || (build 2550/release)
Библиотека кодирования : VirtualDubMod build 2550/release
Правообладатель : KBC
Видео
Идентификатор : 0
Формат файла : MPEG-4 Visual
Профиль формата : Advanced Simple@L5
Параметр BVOP формата : 2
Параметр QPel формата : Нет
Параметр GMC формата : Без точки перехода
Параметр матрицы формата : Выборочная
Идентификатор кодека : XVID
Идентификатор кодека/Подсказка : XviD
Продолжительность : 28 м.
Битрейт : 1783 Кбит/сек
Ширина : 672 пикселя
Высота : 528 пикселей
Соотношение сторон : 1,273
Частота кадров : 25,000 кадров/сек
Цветовое пространство : YUV
Субдискретизация насыщенности : 4:2:0
Битовая глубина : 8 бит
Тип развёртки : Прогрессивная
Метод сжатия : С потерями
Бит/(Пиксели*Кадры) : 0.201
Размер потока : 368 Мбайт (90%)
Библиотека кодирования : XviD 73
Аудио
Идентификатор : 1
Формат файла : AC-3
Формат файла/Информация : Audio Coding 3
Расширение режима : CM (complete main)
Параметр Endianness формата : Big
Идентификатор кодека : 2000
Продолжительность : 28 м.
Вид битрейта : Постоянный
Битрейт : 192 Кбит/сек
Каналы : 2 канала
Расположение каналов : Front: L R
Частота : 48,0 КГц
Битовая глубина : 16 бит
Метод сжатия : С потерями
Размер потока : 39,7 Мбайт (10%)
Выравнивание : Разделение по промежуткам
Продолжительность промежутка : 40 мс. (1,00 видеокадр)
Время предзагрузки промежутка : 500 мс.
Формат файла : AVI
Формат файла/Информация : Audio Video Interleave
Размер файла : 341 Мбайт
Продолжительность : 23 м.
Общий поток : 2039 Кбит/сек
Название фильма : Serie rose: Augustine (1990)
Программа кодирования : VirtualDubMod 1.5.10.3 | www.virtualdub-fr.org || (build 2550/release)
Библиотека кодирования : VirtualDubMod build 2550/release
Правообладатель : KBC
Видео
Идентификатор : 0
Формат файла : MPEG-4 Visual
Профиль формата : Advanced Simple@L5
Параметр BVOP формата : 2
Параметр QPel формата : Нет
Параметр GMC формата : Без точки перехода
Параметр матрицы формата : Выборочная
Идентификатор кодека : XVID
Идентификатор кодека/Подсказка : XviD
Продолжительность : 23 м.
Битрейт : 1838 Кбит/сек
Ширина : 672 пикселя
Высота : 528 пикселей
Соотношение сторон : 1,273
Частота кадров : 25,000 кадров/сек
Цветовое пространство : YUV
Субдискретизация насыщенности : 4:2:0
Битовая глубина : 8 бит
Тип развёртки : Прогрессивная
Метод сжатия : С потерями
Бит/(Пиксели*Кадры) : 0.207
Размер потока : 307 Мбайт (90%)
Библиотека кодирования : XviD 73
Аудио
Идентификатор : 1
Формат файла : AC-3
Формат файла/Информация : Audio Coding 3
Расширение режима : CM (complete main)
Параметр Endianness формата : Big
Идентификатор кодека : 2000
Продолжительность : 23 м.
Вид битрейта : Постоянный
Битрейт : 192 Кбит/сек
Каналы : 2 канала
Расположение каналов : Front: L R
Частота : 48,0 КГц
Битовая глубина : 16 бит
Метод сжатия : С потерями
Задержка видео : 8 мс.
Размер потока : 32,1 Мбайт (9%)
Выравнивание : Разделение по промежуткам
Продолжительность промежутка : 40 мс. (1,00 видеокадр)
Время предзагрузки промежутка : 500 мс.

Скриншоты

[url=tracker.php?g=foreign_serials&nm=Serie%20rose]Предыдущие и альтернативные раздачи[/url]


[torrentc.info]_t_5619417.torrent
Торрент: Зарегистрирован ·  [ 2018-10-12 19:07 ] ·  dcae3868b7dea3f093ead4a5f548254e6774a7e8

15 KB

Статус: проверено
Скачан: 1 раз
Размер: 751 MB
Оценка: 
(Голосов: 0)
Сказали спасибо: 0  Спасибо
Похожие темы
[Профиль]    [ЛС]
Показать сообщения:    
Ответить на тему

Текущее время: Сегодня 06:24

Часовой пояс: GMT + 7



Вы не можете начинать темы
Вы не можете отвечать на сообщения
Вы не можете редактировать свои сообщения
Вы не можете удалять свои сообщения
Вы не можете голосовать в опросах
Вы не можете прикреплять файлы к сообщениям
Вы можете скачивать файлы