Пять злодеев / Пятеро ядовитых / Wu du / Five Deadly Venoms / The 5 Deadly Venoms / Le furie umane del kung-fu / Ng duk (Че Чанг / Cheh Chang) [1978, Гонконг, боевые искусства, BDRip] AVO (Антон Пронин)

Ответить на тему
Статистика раздачи [Обновить пиров]
Размер:  1.47 GB   |    Зарегистрирован:  8 дней   |    Скачан:  0 раз

Полного источника не было: Никогда

 
   
 
 
 
Автор Сообщение

torrentc.info

Создавать темы 11-Окт-2018 23:03

[Цитировать]

Пять злодеев / Пятеро ядовитых / Wu du / Five Deadly Venoms / The 5 Deadly Venoms / Le furie umane del kung-fu / Ng duk
Страна: Гонконг
Жанр: боевые искусства
Год выхода: 1978
Продолжительность: 01:41:35
Перевод: Авторский (одноголосый закадровый) Антон Пронин
Субтитры: нет
Режиссер: Че Чанг / Cheh Chang
В ролях: Шенг Чианг, Филип Квок, Фенг Лу, Вэй Пай, Чиен Сунь, Менг Ло, Ланг Вэй Ванг, Фенг Ку, Шу Пей Сунь
Описание: Учитель кунг-фу умирает, но просит, чтобы его студент отыскал пятерых его бывших учеников, которые разошлись по свету. Каждый из них владеет определенным стилем: Сороконожки, Змеи, Скорпиона, Ящерицы и Жабы. Сейчас они заняты поиском сокровищ, которые были завещаны Клану Ядовитых каким-то богатым стариком. Герой Сун Чьен должен их найти, чтобы узнать с какой целью они собираются применить эти богатства. И если не с доброй, то убить того, кто ослушался. Дело затрудняется, потому что эти пятеро не знакомы друг с другом. А еще они не знают, что старик, у которого эти деньги, хочет, чтобы герои были вынуждены разбиться на два лагеря, члены которых не знают оставшихся....

Сэмпл: http://multi-up.com/1211443
Качество видео: BDRip (Источник: Torrentc BDRemux 1080p)
Формат файла: AVI
Видео: XviD 73, 720x304, (2,35:1), 24,000 fps, 1874 Кбит/с, 8 бит
Аудио: Русский (АС3, 2 ch (Front: L R), 48,0 KHz, 192 Kbps)

MediaInfo

ОбщееПолное имя : D:\Пять злодеев (боевые искусства 1978 год).aviФормат файла : AVIФормат файла/Информация : Audio Video InterleaveРазмер файла : 1,47 ГбайтПродолжительность : 1 ч. 41 м.Общий поток : 2075 Кбит/секПрограмма кодирования : VirtualDubMod 1.5.10.2 (build 2540/release)Библиотека кодирования : VirtualDubMod build 2540/release
ВидеоИдентификатор : 0Формат файла : MPEG-4 VisualПрофиль формата : Advanced Simple@L5Параметр BVOP формата : 2Параметр QPel формата : НетПараметр GMC формата : Без точки переходаПараметр матрицы формата : ВыборочнаяИдентификатор кодека : XVIDИдентификатор кодека/Подсказка : XviDПродолжительность : 1 ч. 41 м.Битрейт : 1874 Кбит/секШирина : 720 пикселейВысота : 304 пикселяСоотношение сторон : 2,35:1Частота кадров : 23,976 (23976/1000) кадра/секЦветовое пространство : YUVСубдискретизация насыщенности : 4:2:0Битовая глубина : 8 битТип развёртки : ПрогрессивнаяМетод сжатия : С потерямиБит/(Пиксели*Кадры) : 0.357Размер потока : 1,33 Гбайт (90%)Библиотека кодирования : XviD 73
АудиоИдентификатор : 1Формат файла : AC-3Формат файла/Информация : Audio Coding 3Расширение режима : CM (complete main)Параметр Endianness формата : BigИдентификатор кодека : 2000Продолжительность : 1 ч. 41 м.Вид битрейта : ПостоянныйБитрейт : 192 Кбит/секКаналы : 2 каналаРасположение каналов : Front: L RЧастота : 48,0 КГцЧастота кадров : 31,250 кадров/сек (1536 spf)Метод сжатия : С потерямиРазмер потока : 140 Мбайт (9%)Выравнивание : Разделение по промежуткамПродолжительность промежутка : 42 мс. (1,00 видеокадр)Время предзагрузки промежутка : 500 мс.

Скриншоты



[torrentc.info]_t_5626780.torrent
Торрент: Зарегистрирован ·  [ 2018-10-11 23:03 ] ·  b64240522e5ffb52c16ab80a54d0b6675a9378dc

15 KB

Статус: проверено
Скачан: 0 раз
Размер: 1.47 GB
Оценка: 
(Голосов: 0)
Сказали спасибо: 0  Спасибо
Похожие темы
[Профиль]    [ЛС]
Показать сообщения:    
Ответить на тему

Текущее время: Сегодня 14:25

Часовой пояс: GMT + 7



Вы не можете начинать темы
Вы не можете отвечать на сообщения
Вы не можете редактировать свои сообщения
Вы не можете удалять свои сообщения
Вы не можете голосовать в опросах
Вы не можете прикреплять файлы к сообщениям
Вы можете скачивать файлы