Велосипеды только для лета / Las bicicletas son para el verano / Bicycles Are for the Summ (Хайме Чаварри / Jaime Chávarri) [1984, Испания, триллер, драма, DVDRip] VO (Юрий Медведев)

Ответить на тему
Статистика раздачи [Обновить пиров]
Размер:  1.47 GB   |    Зарегистрирован:  2 месяца 4 дня   |    Скачан:  0 раз

Полного источника не было: Никогда

 
   
 
 
 
Автор Сообщение

torrentc.info

Создавать темы 11-Окт-2018 23:03

[Цитировать]

Велосипеды только для лета / Las bicicletas son para el verano / Bicycles Are for the Summ
Страна: Испания
Жанр: триллер, драма
Год выхода: 1984
Продолжительность: 01:39:59
Перевод: Одноголосый закадровый Юрий Медведев
Субтитры: нет
Режиссер: Хайме Чаварри / Jaime Chávarri
В ролях: Ампаро Солер Лил, Агустин Гонсалес, Виктория Абриль, Алисия Эрмида, Патриция Адриани, Мариса Паредес, Карлос Тристанчо, Габино Диего, Аврора Редондо
Описание: Дон Луис и его жена донья Долорес — бывшие актеры, воспитывающие двух подрастающих детей. Старшая, Манолита, собирается пойти по стопам родителей и готовится к конкурсу молодых актеров. Младший, Луисито, умудрился провалить экзамены, из-за чего был лишен отцом обещанного велосипеда. Тем не менее, до 18 июля 1936-го года это была обычная мадридская семья. А потом началась война, изменившая все. И Манола вместо театра оказалась с маленьким ребенком на руках — сыном республиканского офицера, а вмиг повзрослевшему Луису-младшему стало уже не до велосипеда…
Сэмпл: http://multi-up.com/1211526
Качество видео: DVDRip (Источник: Torrentc - DVD5)
Формат файла: AVI
Видео: XviD 73, 704x416, (5:3), 25,000 fps, 1874 Кбит/с, 8 бит, 0.26 bit/pixel
Аудио: Русский (АС3, 2 ch (Front: L R), 48,0 KHz, 224 Kbps)

MediaInfo

ОбщееПолное имя : D:\Велосипеды только для лета (триллер, драма 1984 год).aviФормат файла : AVIФормат файла/Информация : Audio Video InterleaveРазмер файла : 1,47 ГбайтПродолжительность : 1 ч. 39 м.Общий поток : 2107 Кбит/секПрограмма кодирования : VirtualDubMod 1.5.10.3 | www.virtualdub-fr.org || (build 2550/release)Библиотека кодирования : VirtualDubMod build 2550/release
ВидеоИдентификатор : 0Формат файла : MPEG-4 VisualПрофиль формата : Advanced Simple@L5Параметр BVOP формата : 2Параметр QPel формата : НетПараметр GMC формата : Без точки переходаПараметр матрицы формата : ВыборочнаяИдентификатор кодека : XVIDИдентификатор кодека/Подсказка : XviDПродолжительность : 1 ч. 39 м.Битрейт : 1874 Кбит/секШирина : 704 пикселяВысота : 416 пикселейСоотношение сторон : 5:3Частота кадров : 25,000 кадров/секЦветовое пространство : YUVСубдискретизация насыщенности : 4:2:0Битовая глубина : 8 битТип развёртки : ПрогрессивнаяМетод сжатия : С потерямиБит/(Пиксели*Кадры) : 0.256Размер потока : 1,31 Гбайт (89%)Библиотека кодирования : XviD 73
АудиоИдентификатор : 1Формат файла : AC-3Формат файла/Информация : Audio Coding 3Расширение режима : CM (complete main)Параметр Endianness формата : BigИдентификатор кодека : 2000Продолжительность : 1 ч. 39 м.Вид битрейта : ПостоянныйБитрейт : 224 Кбит/секКаналы : 2 каналаРасположение каналов : Front: L RЧастота : 48,0 КГцЧастота кадров : 31,250 кадров/сек (1536 spf)Метод сжатия : С потерямиРазмер потока : 160 Мбайт (11%)Выравнивание : Разделение по промежуткамПродолжительность промежутка : 40 мс. (1,00 видеокадр)Время предзагрузки промежутка : 500 мс.

Скриншоты



[torrentc.info]_t_5626928.torrent
Торрент: Зарегистрирован ·  [ 2018-10-11 23:03 ] ·  4a21a1d442af49dd2df73749e9266d5c93225017

15 KB

Статус: проверено
Скачан: 0 раз
Размер: 1.47 GB
Оценка: 
(Голосов: 0)
Сказали спасибо: 0  Спасибо
Похожие темы
[Профиль]    [ЛС]
Показать сообщения:    
Ответить на тему

Текущее время: Сегодня 23:05

Часовой пояс: GMT + 7



Вы не можете начинать темы
Вы не можете отвечать на сообщения
Вы не можете редактировать свои сообщения
Вы не можете удалять свои сообщения
Вы не можете голосовать в опросах
Вы не можете прикреплять файлы к сообщениям
Вы можете скачивать файлы