Убийца гоблинов / Goblin Slayer [TV] [Без хардсаба] [01 из 12] [JAP+SUB] & [01 из 12] [RUS(ext)] [2018, приключения, фэнтези, WEBRip] [1080p]

Ответить на тему
Статистика раздачи [Обновить пиров]
Размер:  1.06 GB   |    Зарегистрирован:  2 месяца 4 дня   |    Скачан:  0 раз

Полного источника не было: Никогда

 
   
 
 
 
Автор Сообщение

torrentc.info

Создавать темы 11-Окт-2018 22:00

[Цитировать]

- Убийца гоблинов
Goblin Slayer
-Страна: Япония
Год выхода: 2018
Жанр: приключения, фэнтези
Тип: TV
Продолжительность: 12 эп., ~25 мин. эпизод
Режиссер: Одзаки Такахару
Студия: White Fox-Русский дубляж - Сэмпл
Многоголосый русский дубляж Black Board Cinema
Список актёров надеюсь добавить позже, как появиться информация.
Перевод: ИД "Истари Комикс" по заказу WAKANIM-Описание:Гоблины слывут лёгкой добычей не просто так — размерами, силой и умом они практически не отличаются от детей. Именно поэтому охота на них считается отличным способом набить руку в авантюрном деле. Этим и руководствуется Жрица, присоединяясь к отряду новичков, чтобы отправиться в пещеру гоблинов. Впрочем, вскоре новоиспечённые авантюристы осознают, как жестоко они ошибались. И когда Жрице кажется, что её жизнь вот-вот подойдёт к бесславному концу, в пещере внезапно появляется странное свечение… Это вовсе не история о благородном рыцаре в сияющих доспехах, который охотится на драконов или вампиров. Напротив, перед вами повесть об убийце низших монстров, носящем запачканную броню и потёртый шлем, за которым виднеется холодный, пронзительный взгляд.© wakanim-World-Art | AniDB-Качество: WEBRip
Тип релиза: Без хардсаба
Формат файла: MKV
Наличие линковки: Нет
: [Erai-raws]
Видео: 1920x1080, x264, 6 143 kb/s, 23.976 fps, 8 бит
Аудио 1 (в контейнере): AAC, 128 kb/s, 2 ch, 44.1 kHz; язык японский
Аудио 2 (внешний файл): AAC, 128 kb/s, 2 ch, 48 kHz; язык русский [Black Board Cinema]
Субтитры: внешние, язык субтитров русский; Перевод: Sunsetblink & Starvation [RisensTeam]

Подробные тех. данные

Format : MatroskaFormat version : Version 4 / Version 2File size : 1.04 GiBDuration : 23 min 40 sOverall bit rate : 6 273 kb/sEncoded date : UTC 2018-10-06 17:53:23Writing application : mkvmerge v27.0.0 ('Metropolis') 64-bitWriting library : libebml v1.3.6 + libmatroska v1.4.9
VideoID : 1Format : AVCFormat/Info : Advanced Video CodecFormat profile : High@L4Format settings : CABAC / 4 Ref FramesFormat settings, CABAC : YesFormat settings, ReFrames : 4 framesCodec ID : V_MPEG4/ISO/AVCDuration : 23 min 40 sBit rate : 6 143 kb/sWidth : 1 920 pixelsHeight : 1 080 pixelsDisplay aspect ratio : 16:9Frame rate mode : ConstantFrame rate : 23.976 (24000/1001) FPSColor space : YUVChroma subsampling : 4:2:0Bit depth : 8 bitsScan type : ProgressiveBits/(Pixel*Frame) : 0.124Stream size : 1.02 GiB (98%)Writing library : x264 core 142Encoding settings : cabac=1 / ref=4 / deblock=1:1:1 / analyse=0x3:0x113 / me=umh / subme=8 / psy=1 / psy_rd=0.40:0.00 / mixed_ref=1 / me_range=16 / chroma_me=1 / trellis=1 / 8x8dct=1 / cqm=0 / deadzone=21,11 / fast_pskip=1 / chroma_qp_offset=-2 / threads=12 / lookahead_threads=2 / sliced_threads=0 / nr=0 / decimate=1 / interlaced=0 / bluray_compat=0 / constrained_intra=0 / bframes=3 / b_pyramid=2 / b_adapt=2 / b_bias=0 / direct=3 / weightb=1 / open_gop=0 / weightp=2 / keyint=48 / keyint_min=25 / scenecut=0 / intra_refresh=0 / rc_lookahead=48 / rc=crf / mbtree=1 / crf=15.0 / qcomp=0.60 / qpmin=0 / qpmax=69 / qpstep=4 / vbv_maxrate=8000 / vbv_bufsize=12000 / crf_max=0.0 / nal_hrd=none / filler=0 / ip_ratio=1.40 / aq=1:0.60Default : YesForced : No
AudioID : 2Format : AAC LCFormat/Info : Advanced Audio Codec Low ComplexityCodec ID : A_AAC-2Duration : 23 min 40 sBit rate : 128 kb/sChannel(s) : 2 channelsChannel layout : L RSampling rate : 44.1 kHzFrame rate : 43.066 FPS (1024 SPF)Compression mode : LossyDelay relative to video : -83 msStream size : 21.7 MiB (2%)Default : YesForced : No

Список эпизодов

1. Судьба некоторых Авантюристов

Скриншоты

Эфир 2-го эпизода намечен на 14.10.2018


[torrentc.info]_t_5624667.torrent
Торрент: Зарегистрирован ·  [ 2018-10-11 22:00 ] ·  8587273fbdd0c11b700637032afce183d1cbf0e1

11 KB

Статус: проверено
Скачан: 0 раз
Размер: 1.06 GB
Оценка: 
(Голосов: 0)
Сказали спасибо: 0  Спасибо
Похожие темы
[Профиль]    [ЛС]
Показать сообщения:    
Ответить на тему

Текущее время: Сегодня 23:51

Часовой пояс: GMT + 7



Вы не можете начинать темы
Вы не можете отвечать на сообщения
Вы не можете редактировать свои сообщения
Вы не можете удалять свои сообщения
Вы не можете голосовать в опросах
Вы не можете прикреплять файлы к сообщениям
Вы можете скачивать файлы