Новая жертва / A Proxima Vitima / Серии: 01-70 из 140 (Жорж Фернандо) [1995, Бразилия, Теленовелла, TVRip, Avi]

Ответить на тему
Статистика раздачи [Обновить пиров]
Размер:  26.2 GB   |    Зарегистрирован:  8 дней   |    Скачан:  0 раз

Полного источника не было: Никогда

 
   
 
 
 
Автор Сообщение

torrentc.info

Создавать темы 11-Окт-2018 20:17

[Цитировать]

Новая жертва / A Proxima Vitima- Год выхода: 1995Страна: БразилияЖанр: ТеленовеллаПродолжительность: ~40-45 минутПеревод: Профессиональный (многоголосый, закадровый)Русские субтитры: нет-Режиссер: Жорж Фернандо-В ролях: Клаудия Охана, Жозе Вилкер, Сюзана Виейра, Тони Рамос, Араси Балабаниан, Вивиан Пажмантер, Маркос Фрота, Наталия ду Валле, Пауло Бетти, Лима Дуарте, Отавио Агусто, Йона Магальяес, Глория Менезес, Вера Ольтц-Описание: Новая Жертва - захватывающий полицейский сериал. Действие происходит в Сан Паулу. Неожиданно начинаются убийства людей из высшего общества. Между ними есть связь, незаметная на первый взгляд, но всех их объединяет секрет, связанный с событием произошедшим много лет назад. Все они были соучастниками одного преступления. Весь этот клубок пытается распутать дочь одной из жертв этой теленовеллы - Ирен.-Рекомендация: В файлах присутствует Сжатый битовый поток (Packed Bitstream)Его легко можно убрать простой, в использовании, программой MPEG4Modifier
Как это делается, можно почитать тут http://Torrentc/forum/viewtopic.php?t=4452634-Доп.информация: С 1 по 40 серии релиз от svta3С 41 по 50 серии релиз от phoebe88С 51 по 70 серии релиз от liana86-Серии с 71 - 140 тут http://Torrentc/forum/viewtopic.php?t=801913-Все раздачи сериала [url=tracker.php?f=534&nm=A%20Proxima%20Vitima]http://Torrentc/forum/tracker.php?f=534&nm=A%20...a%20Vitima[/url]Семпл: http://sendfile.su/1409606-Качество: TVRipФормат файла: AVIВидео кодек: XviD, DivXАудио кодек: MP3Видео: DivX 5 640x448 25.00fps 1037KbpsАудио: MPEG Audio Layer 3 48000Hz stereo 128KbpsВидео: 640x464 (1.38:1), 25 fps, XviD MPEG-4 ~1030 kbps avg, 0.14 bit/pixelАудио: 48 kHz, MPEG Layer 3, 2 ch, ~128.00 kbps avg

MI

Общее
Полное имя : D:\Торрент\После\Новая жертва 1-70\1.divx
Формат файла : DivX
Формат файла/Информация : Hack of AVI
Размер файла : 350 Мбайт
Продолжительность : 42 м. 22 с.
Общий поток : 1155 Кбит/сек
Видео
Идентификатор : 0
Формат файла : MPEG-4 Visual
Настройки формата : BVOP1
Параметр BVOP формата : 1
Параметр QPel формата : Нет
Параметр GMC формата : Без точки перехода
Параметр матрицы формата : Default (H.263)
Режим смешивания : Сжатый битовый поток
Идентификатор кодека : DX50
Идентификатор кодека/Подсказка : DivX 5
Продолжительность : 42 м. 22 с.
Битрейт : 1017 Кбит/сек
Номинальный битрейт : 4854 Кбит/сек
Ширина : 720 пикселей
Высота : 544 пикселя
Соотношение сторон : 4:3
Частота кадров : 25,000 кадров/сек
Цветовое пространство : YUV
Субдискретизация насыщенности : 4:2:0
Битовая глубина : 8 бит
Тип развёртки : Прогрессивная
Метод сжатия : С потерями
Бит/(Пиксели*Кадры) : 0.104
Размер потока : 308 Мбайт (88%)
Заголовок : Video
Библиотека кодирования : DivX 6.2.5 (UTC 2006-07)
Аудио
Идентификатор : 1
Формат файла : MPEG Audio
Версия формата : Version 1
Профиль формата : Layer 3
Настройки формата : Dual mono
Идентификатор кодека : 55
Идентификатор кодека/Подсказка : MP3
Продолжительность : 42 м. 22 с.
Вид битрейта : Постоянный
Битрейт : 128 Кбит/сек
Каналы : 2 канала
Частота : 48,0 КГц
Метод сжатия : С потерями
Размер потока : 38,8 Мбайт (11%)
Выравнивание : Разделение по промежуткам
Продолжительность промежутка : 40 мс. (1,00 видеокадр)
Время предзагрузки промежутка : 500 мс.
Заголовок : Audio-Общее
Полное имя : D:\Торрент\После\Новая жертва 1-70\55.avi
Формат файла : AVI
Формат файла/Информация : Audio Video Interleave
Размер файла : 380 Мбайт
Продолжительность : 45 м. 27 с.
Общий поток : 1169 Кбит/сек
Программа кодирования : VirtualDubMod 1.5.10.2 (build 2540/release)
Библиотека кодирования : VirtualDubMod build 2540/release
Видео
Идентификатор : 0
Формат файла : MPEG-4 Visual
Профиль формата : Advanced Simple@L5
Настройки формата : BVOP2
Параметр BVOP формата : 2
Параметр QPel формата : Нет
Параметр GMC формата : Без точки перехода
Параметр матрицы формата : Default (MPEG)
Режим смешивания : Сжатый битовый поток
Идентификатор кодека : DX50
Идентификатор кодека/Подсказка : DivX 5
Продолжительность : 45 м. 27 с.
Битрейт : 1031 Кбит/сек
Ширина : 640 пикселей
Высота : 464 пикселя
Соотношение сторон : 1,379
Частота кадров : 25,000 кадров/сек
Цветовое пространство : YUV
Субдискретизация насыщенности : 4:2:0
Битовая глубина : 8 бит
Тип развёртки : Прогрессивная
Метод сжатия : С потерями
Бит/(Пиксели*Кадры) : 0.139
Размер потока : 335 Мбайт (88%)
Библиотека кодирования : XviD 1.2.0.dev47 (UTC 2006-11-01)
Аудио
Идентификатор : 1
Формат файла : MPEG Audio
Версия формата : Version 1
Профиль формата : Layer 3
Настройки формата : Joint stereo / MS Stereo
Идентификатор кодека : 55
Идентификатор кодека/Подсказка : MP3
Продолжительность : 45 м. 27 с.
Вид битрейта : Постоянный
Битрейт : 128 Кбит/сек
Каналы : 2 канала
Частота : 48,0 КГц
Метод сжатия : С потерями
Размер потока : 41,6 Мбайт (11%)
Выравнивание : Соединение по промежуткам
Продолжительность промежутка : 40 мс. (1,00 видеокадр)
Время предзагрузки промежутка : 504 мс.
-Пожалуйста, сразу не уходите с раздачи. Дайте возможность скачать другим. Надеюсь на понимание    .


[torrentc.info]_t_784562.torrent
Торрент: Зарегистрирован ·  [ 2018-10-11 20:15 ] ·  610c017911f698b053a958762ca87fbf4a345d16

134 KB

Статус: проверено
Скачан: 0 раз
Размер: 26.2 GB
Оценка: 
(Голосов: 0)
Сказали спасибо: 0  Спасибо
Похожие темы
[Профиль]    [ЛС]
Показать сообщения:    
Ответить на тему

Текущее время: Сегодня 13:26

Часовой пояс: GMT + 7



Вы не можете начинать темы
Вы не можете отвечать на сообщения
Вы не можете редактировать свои сообщения
Вы не можете удалять свои сообщения
Вы не можете голосовать в опросах
Вы не можете прикреплять файлы к сообщениям
Вы можете скачивать файлы