Преисподняя / Brimstone (Мартин Кулховен / Martin Koolhoven) [2016, Нидерланды, Франция, Германия, Бельгия, Швеция, Великобритания, триллер, детектив, вестерн, драма, BDRip-AVC] 2 x MVO (Rus, Ukr) + Original (Eng) + Sub (rus, eng)

Ответить на тему
Статистика раздачи [Обновить пиров]
Размер:  2.91 GB   |    Зарегистрирован:  2 месяца 4 дня   |    Скачан:  0 раз

Полного источника не было: Никогда

 
   
 
 
 
Автор Сообщение

torrentc.info

Создавать темы 11-Окт-2018 20:16

[Цитировать]

[img=right]https://i4.imageban.ru/out/2018/10/01/a64cf5599e885...833835.png[/img]-Преисподняя / Brimstone«Возмездие грядёт»--Год выхода: 2016Страна: Нидерланды, Франция, Германия, Бельгия, Швеция, ВеликобританияЖанр: триллер, детектив, вестерн, драма-Продолжительность: 01:44:06Перевод № 1: Профессиональный (многоголосый закадровый) iTunesПеревод № 2: Профессиональный (многоголосый закадровый) Украинский-Оригинальная аудиодорожка: английскаяСубтитры: русские (Full) , английские (Forced, Full) [srt.]--Режиссер:Мартин Кулховен / Martin Koolhoven-В ролях:Дакота Фэннинг, Кит Харингтон, Кэрис ван Хаутен, Гай Пирс, Пол Андерсон, Эмилия Джонс, Карла Юри, Джек Рот, Тиго Гернандт, Наоми Баттрик-Описание:
Немая девушка по имени Лиз живет вместе с мужем и двумя детьми. Она акушерка и общается посредством языка жестов, иногда привлекая для помощи свою дочь. Ее жизнь не идеальна, но довольна счастлива. Все меняется, когда в местной церкви появляется новый преподобный, Лиз мгновенная понимает, что ее жизнь, как и всей семьи, в опасности. Мало-помалу преподобный пытается отнять у Лиз все, что ей дорого. Однако Лиз приходится спасаться не только от преподобного, но и от призраков своего прошлого...
--Дополнительная информация:- -Сэмпл
Звуковую дорожку (AVO - Юрий Немахов), можно скачать отдельным файлом с другой раздачи: ссылка--Качество видео: BDRip-AVC (Источник: Torrentc BDRemux 1080p)
Формат файла: MKV
Видео: AVC (x264), 1152x482 (2.39:1), 23.976 fps, ~1646 kbps avg, 0.124 bit/pixel
Аудио № 1: 48 kHz, AC3 Dolby Digital, 3/2 (L,C,R,l,r) + LFE ch, ~384 kbps (MVO-Rus)
Аудио № 2: 48 kHz, AC3 Dolby Digital, 3/2 (L,C,R,l,r) + LFE ch, ~384 kbps (MVO-Ukr)
Аудио № 3: 48 kHz, AC3 Dolby Digital, 3/2 (L,C,R,l,r) + LFE ch, ~384 kbps (Оригинал - Eng)-Главы: есть-

MediaInfo/loglog

x264 [info]: frame I:1360 Avg QP:15.06 size: 68304
x264 [info]: frame P:37060 Avg QP:18.58 size: 20517
x264 [info]: frame B:175252 Avg QP:19.01 size: 5596
x264 [info]: consecutive B-frames: 1.0% 0.5% 3.3% 6.6% 11.7% 56.2% 6.4% 3.1% 1.9% 1.0% 1.6% 0.6% 2.3% 1.5% 0.7% 0.3% 1.3%
x264 [info]: mb I I16..4: 6.2% 78.1% 15.7%
x264 [info]: mb P I16..4: 0.4% 4.9% 1.0% P16..4: 32.1% 38.1% 13.7% 0.0% 0.0% skip: 9.7%
x264 [info]: mb B I16..4: 0.0% 0.4% 0.1% B16..8: 34.6% 17.4% 2.7% direct: 2.7% skip:42.0% L0:47.2% L1:46.1% BI: 6.7%
x264 [info]: 8x8 transform intra:76.3% inter:58.8%
x264 [info]: direct mvs spatial:98.4% temporal:1.6%
x264 [info]: coded y,uvDC,uvAC intra: 81.4% 69.6% 45.8% inter: 17.1% 11.5% 4.2%
x264 [info]: i16 v,h,dc,p: 42% 14% 14% 31%
x264 [info]: i8 v,h,dc,ddl,ddr,vr,hd,vl,hu: 16% 7% 10% 9% 12% 13% 11% 11% 11%
x264 [info]: i4 v,h,dc,ddl,ddr,vr,hd,vl,hu: 35% 5% 11% 6% 9% 10% 8% 8% 8%
x264 [info]: i8c dc,h,v,p: 33% 32% 21% 14%
x264 [info]: Weighted P-Frames: Y:5.7% UV:2.7%
x264 [info]: ref P L0: 47.4% 7.9% 15.7% 8.1% 6.4% 5.2% 4.4% 2.7% 2.1% 0.1% 0.0%
x264 [info]: ref B L0: 64.9% 14.8% 8.2% 4.4% 3.3% 2.6% 1.4% 0.4%
x264 [info]: ref B L1: 92.0% 8.0%
x264 [info]: kb/s:1646.30
General
Unique ID : 248183452506294810959970301533917779912 (0xBAB664F014723179B5EE81B59A0B97C8)
Complete name : \Preispodnaya_(2016).BDRip-AVC.ac3.MVO.Eng.sub_[All.Films][RG].mkv
Format : Matroska
Format version : Version 2
File size : 2.91 GiB
Duration : 2 h 28 min
Overall bit rate : 2 800 kb/s
Movie name : Преисподняя / Brimstone (2016) BDRip-AVC | [All.Films][RG][Torrentc]
Encoded date : UTC 2018-10-03 08:52:58
Writing application : mkvmerge v6.9.1 ('Blue Panther') 32bit built on Apr 18 2014 18:15:44
Writing library : libebml v1.3.0 + libmatroska v1.4.1
Video
ID : 1
Format : AVC
Format/Info : Advanced Video Codec
Format profile : High@L4.1
Format settings : CABAC / 9 Ref Frames
Format settings, CABAC : Yes
Format settings, ReFrames : 9 frames
Codec ID : V_MPEG4/ISO/AVC
Duration : 2 h 28 min
Bit rate : 1 647 kb/s
Width : 1 152 pixels
Height : 482 pixels
Display aspect ratio : 2.40:1
Frame rate mode : Constant
Frame rate : 23.976 (24000/1001) FPS
Color space : YUV
Chroma subsampling : 4:2:0
Bit depth : 8 bits
Scan type : Progressive
Bits/(Pixel*Frame) : 0.124
Stream size : 1.65 GiB (57%)
Writing library : x264 core 152 r2851kMod ba24899
Encoding settings : cabac=1 / ref=9 / deblock=1:-2:-2 / analyse=0x3:0x113 / me=umh / subme=11 / psy=1 / fade_compensate=0.00 / psy_rd=1.00:0.00 / mixed_ref=1 / me_range=36 / chroma_me=1 / trellis=2 / 8x8dct=1 / cqm=0 / deadzone=21,11 / fast_pskip=0 / chroma_qp_offset=-2 / threads=6 / lookahead_threads=1 / sliced_threads=0 / nr=0 / decimate=0 / interlaced=0 / bluray_compat=0 / constrained_intra=0 / bframes=16 / b_pyramid=2 / b_adapt=2 / b_bias=0 / direct=3 / weightb=1 / open_gop=0 / weightp=2 / keyint=240 / keyint_min=23 / scenecut=40 / intra_refresh=0 / rc_lookahead=60 / rc=2pass / mbtree=0 / bitrate=1647 / ratetol=1.0 / qcomp=0.60 / qpmin=0 / qpmax=69 / qpstep=4 / cplxblur=20.0 / qblur=0.5 / vbv_maxrate=50000 / vbv_bufsize=62500 / nal_hrd=none / filler=0 / ip_ratio=1.40 / pb_ratio=1.30 / aq=3:1.00 / zones=204600,213672,q=30
Default : Yes
Forced : No
Audio #1
ID : 2
Format : AC-3
Format/Info : Audio Coding 3
Commercial name : Dolby Digital
Codec ID : A_AC3
Duration : 2 h 28 min
Bit rate mode : Constant
Bit rate : 384 kb/s
Channel(s) : 6 channels
Channel layout : L R C LFE Ls Rs
Sampling rate : 48.0 kHz
Frame rate : 31.250 FPS (1536 SPF)
Bit depth : 16 bits
Compression mode : Lossy
Stream size : 408 MiB (14%)
Title : MVO (Rus)
Language : Russian
Service kind : Complete Main
Default : Yes
Forced : No
Audio #2
ID : 3
Format : AC-3
Format/Info : Audio Coding 3
Commercial name : Dolby Digital
Codec ID : A_AC3
Duration : 2 h 28 min
Bit rate mode : Constant
Bit rate : 384 kb/s
Channel(s) : 6 channels
Channel layout : L R C LFE Ls Rs
Sampling rate : 48.0 kHz
Frame rate : 31.250 FPS (1536 SPF)
Bit depth : 16 bits
Compression mode : Lossy
Stream size : 408 MiB (14%)
Title : MVO (Ukr)
Language : Ukrainian
Service kind : Complete Main
Default : No
Forced : No
Audio #3
ID : 4
Format : AC-3
Format/Info : Audio Coding 3
Commercial name : Dolby Digital
Codec ID : A_AC3
Duration : 2 h 28 min
Bit rate mode : Constant
Bit rate : 384 kb/s
Channel(s) : 6 channels
Channel layout : L R C LFE Ls Rs
Sampling rate : 48.0 kHz
Frame rate : 31.250 FPS (1536 SPF)
Bit depth : 16 bits
Compression mode : Lossy
Stream size : 408 MiB (14%)
Title : Original
Language : English
Service kind : Complete Main
Default : No
Forced : No
Text #1
ID : 5
Format : UTF-8
Codec ID : S_TEXT/UTF8
Codec ID/Info : UTF-8 Plain Text
Title : Full
Language : Russian
Default : No
Forced : No
Text #2
ID : 6
Format : UTF-8
Codec ID : S_TEXT/UTF8
Codec ID/Info : UTF-8 Plain Text
Title : Forced
Language : English
Default : No
Forced : No
Text #3
ID : 7
Format : UTF-8
Codec ID : S_TEXT/UTF8
Codec ID/Info : UTF-8 Plain Text
Title : Full
Language : English
Default : No
Forced : No
Menu
00:00:00.000 : en:00:00:00.000
00:04:29.853 : en:00:04:29.853
00:11:51.920 : en:00:11:51.920
00:19:58.489 : en:00:19:58.489
00:25:06.213 : en:00:25:06.213
00:32:22.190 : en:00:32:22.190
00:42:25.042 : en:00:42:25.042
00:48:21.148 : en:00:48:21.148
00:55:44.341 : en:00:55:44.341
01:01:14.254 : en:01:01:14.254
01:06:42.040 : en:01:06:42.040
01:17:13.963 : en:01:17:13.963
01:24:38.156 : en:01:24:38.156
01:32:47.312 : en:01:32:47.312
01:39:57.241 : en:01:39:57.241
01:49:04.788 : en:01:49:04.788
01:56:10.630 : en:01:56:10.630
02:02:54.867 : en:02:02:54.867
02:13:38.177 : en:02:13:38.177
02:20:17.909 : en:02:20:17.909FAQ по просмотру MKV/h.264/AAC
  • [url=viewtopic.php?p=9255801#1]Смогу ли я запустить AVC фильм на своём компьютере?[/url]
  • [url=viewtopic.php?p=9255801#2]Сампл из раздачи не воспроизводится/тормозит или отсутствует звук/изображение. Что делать?[/url]
  • [url=viewtopic.php?p=9255801#3]Что такое H.264/AVC и зачем он нужен?[/url]
  • [url=viewtopic.php?p=9255801#4]Что за дурацкий формат .MKV?[/url]
  • [url=viewtopic.php?p=9255801#5]Почему MKV? Чем AVI хуже?[/url]
  • [url=viewtopic.php?p=9255801#6]Не могу переключить/включить/выключить аудио/видео дорожки и/или субтитры. Что делать?[/url]
  • [url=viewtopic.php?p=9255801#14]Как сделать так, чтобы по умолчанию при просмотре MKV файлов нужные/ненужные субтитры были включены/выключены, и/или сразу проигрывалась дорожка на нужном мне языке?[/url]
  • [url=viewtopic.php?p=9255801#7]Будут ли фильмы в таком формате проигрываться на бытовых плеерах без компьютера?[/url]
  • [url=viewtopic.php?p=9255801#8]Проигрываю фильм, а картинка очень сильно отличается от скринов/бледная/перенасыщенная. Что не так?[/url]
  • [url=viewtopic.php?p=9255801#9]Можно ли сконвертировать AVC в DVD?[/url]
  • [url=viewtopic.php?p=9255801#10]Почему сплюснута картинка / в характеристиках видео указано два разрешения / что такое анаморфное разрешение?[/url]
  • [url=viewtopic.php?p=9255801#169]Зачем релизёры обманывают качающих и пишут в заголовке 720p/1080p, а на самом деле раздают видеоматериалы в непонятных разрешениях?[/url]
  • [url=viewtopic.php?p=9255801#11]Можно ли вывести многоканальный FLAC/AAC-звук на внешний ресивер?[/url]
  • [url=viewtopic.php?p=9255801#12]У меня 2-канальная акустика/стереонаушники. При просмотре видео почти не слышно/совсем не слышно речь/разговоры, играют только фоновые звуки. Что делать?[/url]
  • [url=viewtopic.php?p=9255801#coreweightp]У меня стоит CoreAVC версии 1.9.5 или младше. При воспроизведении картинка рассыпается на квадраты и разноцветные пятна. Кривой рип?[/url]
  • [url=viewtopic.php?p=9255801#13]Всё прочитал(-а), решения своей проблемы не нашёл(-шла)/не смог(-ла) разобраться. Что делать?[/url]


[torrentc.info]_t_5621657.torrent
Торрент: Зарегистрирован ·  [ 2018-10-11 20:15 ] ·  6a1d47a32f582fe1539e6bd78b6026c85191ce4f

15 KB

Статус: проверено
Скачан: 0 раз
Размер: 2.91 GB
Оценка: 
(Голосов: 0)
Сказали спасибо: 0  Спасибо
Похожие темы
[Профиль]    [ЛС]
Показать сообщения:    
Ответить на тему

Текущее время: Сегодня 23:13

Часовой пояс: GMT + 7



Вы не можете начинать темы
Вы не можете отвечать на сообщения
Вы не можете редактировать свои сообщения
Вы не можете удалять свои сообщения
Вы не можете голосовать в опросах
Вы не можете прикреплять файлы к сообщениям
Вы можете скачивать файлы