Мир Юрского периода 2 / Jurassic World: Fallen Kingdom (Хуан Антонио Байона / Juan Antonio Bayona) [2018, США, фантастика, боевик, приключения, BDRip-AVC] Dub + Original Eng + Sub Rus, Eng

Ответить на тему
 
Автор Сообщение

torrentc.info

Создавать темы 11-Окт-2018 10:47

[Цитировать]

Мир Юрского периода 2 / Jurassic World: Fallen Kingdom- Год выхода: 2018
Страна: США / Universal Pictures
Жанр: фантастика, боевик, приключения
Продолжительность: 02:08:17
Перевод: Профессиональный (дублированный) BD EUR
Субтитры: русские (полные), английские (полные, полные SDH)
Оригинальная аудиодорожка: английский-Режиссер: Хуан Антонио Байона / Juan Antonio Bayona-В ролях: Брайс Даллас Ховард, Крис Пратт, Джефф Голдблюм, Тед Левайн, Джеймс Кромуэлл, Тоби Джонс, Б.Д. Вонг, Рейф Сполл, Даниэлла Пинеда, Джеральдин Чаплин.-Описание: На острове Нублар, где не так давно располагался парк развлечений с динозаврами, правит бал дикая природа, но внезапно пробудившийся вулкан угрожает стереть динозавров с лица земли. Бывшая управляющая парком Клэр Диринг переквалифицировалась в защитницу исчезающих видов и пытается сделать всё, чтобы спасти доисторических животных. На неё выходит Илай Миллс — доверенное лицо миллиардера Бенждамина Локвуда, который много лет назад был соратником профессора Хаммонда. Миллс предлагает Клэр, знакомой с системой безопасности парка, поехать на остров и помочь ему поймать нескольких особей, чтобы вывести их на другой безопасный остров. Клэр даже удается уговорить своего бывшего парня, дрессировщика Оуэена, принять участие в спасательной миссии, но по прибытии в парк, выясняется, что у Миллса совсем другие цели.-Рейтинг
kinopoisk.ru 6.176 (35 593)
imdb.com 6.30 (155 596)
-Качество видео: BDRip-AVC (Jurassic World Fallen Kingdom 2018 BluRay 1080p AVC DTS-HD MA7.1-MTeam)
Формат файла: MKV | Sample
Видео: 1024x428 (2.40:1), 23.976 fps, x264@L4.1 ~1869 kbps avg, 0.18 bit/pixel
Аудио 1: 48 kHz, AC3 Dolby Digital, 3/2 (L,C,R,l,r) + LFE ch, ~384.00 kbps avg | RUS
Аудио 2: 48 kHz, AC3 Dolby Digital, 2/0 (L,R) ch, 192.00 kbps avg | ENG

Инфо

Формат файла : Matroska
Версия формата : Version 4
Размер файла : 2,19 Гбайт
Продолжительность : 2 ч. 8 м.
Общий поток : 2448 Кбит/сек
Название фильма : Jurassic World Fallen Kingdom 2018 / TorpedoUK
Дата кодирования : UTC 2018-10-10 17:11:28
Программа кодирования : mkvmerge v26.0.0 ('In The Game') 32-bit
Библиотека кодирования : libebml v1.3.6 + libmatroska v1.4.9
Видео
Идентификатор : 1
Формат файла : AVC
Формат файла/Информация : Advanced Video Codec
Профиль формата : High@L4.1
Настройки формата : CABAC / 10 Ref Frames
Параметр CABAC формата : Да
Параметр RefFrames формата : 10 кадров
Идентификатор кодека : V_MPEG4/ISO/AVC
Продолжительность : 2 ч. 8 м.
Битрейт : 1869 Кбит/сек
Ширина : 1024 пикселя
Высота : 428 пикселей
Соотношение сторон : 2,40:1
Режим частоты кадров : Постоянный
Частота кадров : 23,976 (24000/1001) кадра/сек
Цветовое пространство : YUV
Субдискретизация насыщенности : 4:2:0
Битовая глубина : 8 бит
Тип развёртки : Прогрессивная
Бит/(Пиксели*Кадры) : 0.178
Размер потока : 1,68 Гбайт (76%)
Заголовок : BDRip-AVC
Библиотека кодирования : x264 core 146 r2538 121396c
Настройки программы : cabac=1 / ref=10 / deblock=1:-3:-3 / analyse=0x3:0x113 / me=umh / subme=11 / psy=1 / psy_rd=0.97:0.05 / mixed_ref=1 / me_range=48 / chroma_me=1 / trellis=2 / 8x8dct=1 / cqm=0 / deadzone=21,11 / fast_pskip=1 / chroma_qp_offset=-3 / threads=6 / lookahead_threads=1 / sliced_threads=0 / nr=0 / decimate=1 / interlaced=0 / bluray_compat=0 / constrained_intra=0 / bframes=10 / b_pyramid=2 / b_adapt=2 / b_bias=0 / direct=3 / weightb=1 / open_gop=0 / weightp=2 / keyint=240 / keyint_min=23 / scenecut=40 / intra_refresh=0 / rc_lookahead=40 / rc=2pass / mbtree=0 / bitrate=1869 / ratetol=1.0 / qcomp=0.60 / qpmin=0 / qpmax=69 / qpstep=4 / cplxblur=20.0 / qblur=0.5 / vbv_maxrate=50000 / vbv_bufsize=62500 / nal_hrd=none / filler=0 / ip_ratio=1.40 / pb_ratio=1.30 / aq=1:1.00
Язык : English
Default : Да
Forced : Нет
Аудио #1
Идентификатор : 2
Формат файла : AC-3
Формат файла/Информация : Audio Coding 3
Коммерческое название : Dolby Digital
Идентификатор кодека : A_AC3
Продолжительность : 2 ч. 8 м.
Вид битрейта : Постоянный
Битрейт : 384 Кбит/сек
Каналы : 6 каналов
Channel layout : L R C LFE Ls Rs
Частота : 48,0 КГц
Частота кадров : 31,250 кадров/сек (1536 SPF)
Битовая глубина : 16 бит
Метод сжатия : С потерями
Размер потока : 352 Мбайт (16%)
Заголовок : BD EUR
Язык : Russian
ServiceKind/String : Complete Main
Default : Да
Forced : Нет
Аудио #2
Идентификатор : 3
Формат файла : AC-3
Формат файла/Информация : Audio Coding 3
Коммерческое название : Dolby Digital
Идентификатор кодека : A_AC3
Продолжительность : 2 ч. 8 м.
Вид битрейта : Постоянный
Битрейт : 192 Кбит/сек
Каналы : 6 каналов
Channel layout : L R C LFE Ls Rs
Частота : 48,0 КГц
Частота кадров : 31,250 кадров/сек (1536 SPF)
Битовая глубина : 16 бит
Метод сжатия : С потерями
Размер потока : 176 Мбайт (8%)
Заголовок : Original
Язык : English
ServiceKind/String : Complete Main
Default : Нет
Forced : Нет
Текст #1
Идентификатор : 4
Формат файла : UTF-8
Идентификатор кодека : S_TEXT/UTF8
Идентификатор кодека/Информация : UTF-8 Plain Text
Продолжительность : 1 ч. 56 м.
Битрейт : 73 бит/сек
ElementCount : 1724
Размер потока : 62,7 Кбайт (0%)
Заголовок : Full
Язык : Russian
Default : Нет
Forced : Нет
Текст #2
Идентификатор : 5
Формат файла : UTF-8
Идентификатор кодека : S_TEXT/UTF8
Идентификатор кодека/Информация : UTF-8 Plain Text
Продолжительность : 1 ч. 55 м.
Битрейт : 42 бит/сек
ElementCount : 1198
Размер потока : 36,2 Кбайт (0%)
Заголовок : Full
Язык : English
Default : Нет
Forced : Нет
Текст #3
Идентификатор : 6
Формат файла : UTF-8
Идентификатор кодека : S_TEXT/UTF8
Идентификатор кодека/Информация : UTF-8 Plain Text
Продолжительность : 2 ч. 7 м.
Битрейт : 48 бит/сек
ElementCount : 1771
Размер потока : 45,4 Кбайт (0%)
Заголовок : Full SDH
Язык : English
Default : Нет
Forced : Нет
Меню
00:00:00.000 : en:00:00:00.000
00:07:13.224 : en:00:07:13.224
00:12:01.554 : en:00:12:01.554
00:17:17.745 : en:00:17:17.745
00:21:17.193 : en:00:21:17.193
00:28:49.811 : en:00:28:49.811
00:35:04.686 : en:00:35:04.686
00:40:51.574 : en:00:40:51.574
00:46:32.498 : en:00:46:32.498
00:52:04.997 : en:00:52:04.997
01:00:59.197 : en:01:00:59.197
01:06:50.256 : en:01:06:50.256
01:11:07.638 : en:01:11:07.638
01:17:21.095 : en:01:17:21.095
01:26:55.210 : en:01:26:55.210
01:33:01.493 : en:01:33:01.493
01:42:55.878 : en:01:42:55.878
01:50:01.553 : en:01:50:01.553
01:54:56.223 : en:01:54:56.223
01:58:37.986 : en:01:58:37.986

Скриншоты

[Профиль]    [ЛС]
Показать сообщения:    
Ответить на тему

Текущее время: Сегодня 13:27

Часовой пояс: GMT + 7



Вы не можете начинать темы
Вы не можете отвечать на сообщения
Вы не можете редактировать свои сообщения
Вы не можете удалять свои сообщения
Вы не можете голосовать в опросах
Вы не можете прикреплять файлы к сообщениям
Вы не можете скачивать файлы