Не волнуйся, он далеко не уйдёт / Don\'t Worry, He Won\'t Get Far on Foot (Гас Ван Сент / Gus Van Sant) [2018, США, Франция, драма, комедия, биография, BDRip] MVO (HDRezka Studio)

Ответить на тему
 
Автор Сообщение

torrentc.info

Создавать темы 10-Окт-2018 14:54

[Цитировать]

Не волнуйся, он далеко не уйдёт / Don't Worry, He Won't Get Far on Foot
Страна: США, Франция
Жанр: драма, комедия, биография
Год выхода: 2018
Продолжительность: 01:54:19-Перевод: Любительский (многоголосый закадровый) | HDRezka Studio
Субтитры: нет
Оригинальная аудиодорожка: нет-Режиссер: Гас Ван Сент / Gus Van Sant-В ролях: Хоакин Феникс, Джона Хилл, Руни Мара, Джек Блэк, Тони Гринхэнд, Бет Дитто, Марк Веббер, Ronnie Adrian, Ким Гордон, Удо Кир-Описание: Джон не умел вовремя останавливаться, когда дело касалось быстрой езды, красивых женщин и опасных шуток. Прихватив случайного приятеля на вечеринке, он садится в машину и чудом остаётся в живых. С этого момента начинается горькая и вдохновляющая, правдивая и трогательная история человека, который потерял все, и вынужден двигаться дальше, чтобы обрести себя как одного из самых талантливых художников-карикатуристов Америки.-[img]https://rating.kinopoisk.ru/1008748.gif[/img]-Качество видео: BDRip | Dont.Worry.He.Wont.Get.Far.On.Foot.2018.1080p.BluRay.REMUX.AVC.DTS-HD.MA.5.1-FGT
Формат файла: AVI
Видео: 720x400 (1.80:1), 23.976 fps, XviD build 73 ~1627 kbps avg, 0.23 bit/pixel
Аудио: 48 kHz, AC3 Dolby Digital, 2/0 (L,R) ch, ~192 kbps avg-

Сэмпл-

MediaInfo

Формат файла                                   : AVI
Формат файла/Информация                        : Audio Video Interleave
Размер файла                             : 1,46 Гбайт
Продолжительность                        : 1 ч. 54 м.
Общий поток                              : 1829 Кбит/сек
Программа кодирования                    : VirtualDubMod 1.5.10.3 | www.virtualdub-fr.org || (build 2550/release)
Библиотека кодирования                   : VirtualDubMod build 2550/release
Видео
Идентификатор                            : 0
Формат файла                                   : MPEG-4 Visual
Профиль формата                          : Advanced Simple@L5
Настройки формата                        : BVOP1 / Custom Matrix
Параметр BVOP формата                    : 1
Параметр QPel формата                    : Нет
Параметр GMC формата                     : Без точки перехода
Параметр матрицы формата                 : Выборочная
Идентификатор кодека                     : XVID
Идентификатор кодека/Подсказка           : XviD
Продолжительность                        : 1 ч. 54 м.
Битрейт                                  : 1627 Кбит/сек
Ширина                                   : 720 пикселей
Высота                                   : 400 пикселей
Соотношение сторон                       : 16:9
Частота кадров                           : 23,976 (24000/1001) кадра/сек
Цветовое пространство                    : YUV
Субдискретизация насыщенности            : 4:2:0
Битовая глубина                          : 8 бит
Тип развёртки                            : Прогрессивная
Метод сжатия                             : С потерями
Бит/(Пиксели*Кадры)                      : 0.236
Размер потока                            : 1,30 Гбайт (89%)
Библиотека кодирования                   : XviD 73
Аудио
Идентификатор                            : 1
Формат файла                                   : AC-3
Формат файла/Информация                        : Audio Coding 3
Коммерческое название                    : Dolby Digital
Идентификатор кодека                     : 2000
Продолжительность                        : 1 ч. 54 м.
Вид битрейта                             : Постоянный
Битрейт                                  : 192 Кбит/сек
Каналы                                   : 2 канала
Channel layout                           : L R
Частота                                  : 48,0 КГц
Частота кадров                           : 31,250 кадров/сек (1536 SPF)
Битовая глубина                          : 16 бит
Метод сжатия                             : С потерями
Размер потока                            : 157 Мбайт (10%)
Выравнивание                             : Разделение по промежуткам
Продолжительность промежутка             : 42  мс. (1,00 видеокадр)
Время предзагрузки промежутка            : 500  мс.
ServiceKind/String                       : Complete Main
При появлении проф. озвучки, перезалью.
[Профиль]    [ЛС]
Показать сообщения:    
Ответить на тему

Текущее время: Сегодня 19:25

Часовой пояс: GMT + 7



Вы не можете начинать темы
Вы не можете отвечать на сообщения
Вы не можете редактировать свои сообщения
Вы не можете удалять свои сообщения
Вы не можете голосовать в опросах
Вы не можете прикреплять файлы к сообщениям
Вы не можете скачивать файлы