Анатомия измены / Anatomy of Betrayal (Николай Дрейден / Nick Dreyden) [2018, Россия, Драма, WEB-DLRip] Original Rus

Ответить на тему
Статистика раздачи [Обновить пиров]
Размер:  1.46 GB   |    Зарегистрирован:  9 дней   |    Скачан:  1 раз

Полного источника не было: 10 часов

 
   
 
 
 
Автор Сообщение

torrentc.info

Создавать темы 10-Окт-2018 13:51

[Цитировать]

Анатомия измены / Anatomy of Betrayal
Страна: Россия
Студия: Санкт-Петербургская студия документальных фильмов "Лендок"
Жанр: Драма
Год выхода: 2018
Продолжительность: 01:28:07
Перевод: Профессиональный (одноголосый закадровый) - Николай Дрейден - лицензия iTunes
Субтитры: нет
Оригинальная аудиодорожка: Русский
Режиссер: Николай Дрейден / Nick Dreyden
В ролях: Александр Анриа, Ану Палеваара, Полина Толстун, Евгений Ткачук, Николай Дрейден, Каспер Равнхой, Ютте Кьобек Йорн, Лилия Бурдинская, Елена Чурилова, Махина Джураева, Руслан Комаров, Илья Базарский, Святослав Дозморов, Игорь Фомин, Сергей Филимонов, Крестина Ёлкина, Мария Террас, Давид Бродский, Алексей Макрецкий, Филипп Могильницкий, Вадим Бадмацыренов
Описание: Киноальманах снят по мотивам драматических произведений Валентина Красногорова и личной истории Лилии Бурдинской. 4 истории происходят в разных странах мира и объединены темой «измены». Финляндия: Он и Она - идеальная семья - они лгут друг другу в течение десяти лет, сегодня, в юбилей свадьбы, они должны сказать друг другу правду… Австрия: день накануне свадьбы, русская модель Клара проводит последнюю ночь с возлюбленным, но, возможно, возлюбленный - не её жених... Китай: режиссёр из Европы приезжает снимать рекламу мясорубки «Счастье», во время съёмки богатый заказчик требует режиссёра изменить концепцию, угрожая жизни режиссёра. Создателю предстоит либо вновь изменить себе, либо себя. Дания: когда-то София была знаменитой танцовщицей, теперь ей 91 и она скована артритом. Сегодня она получит приглашение из далекой Палестины от авторитарного хореографа Рахель станцевать возможно последнюю партию в своей жизни...
Дополнительная информация:
Автор релиза - [img]https://img11.lostpic.net/2018/07/24/6c16c23c27890c...8129c8.gif[/img]
Источник: Torrentc для рипа - WEB-DL (1080p) iTunes - выкуплен мной
По задумке Николая Дрейдена актёры в фильме разговаривают на различных языках (китайский, финский, иврит, английский, немецкий, датский), а поверх их речи наложен одноголосый перевод-рассказ режиссёра


Сэмпл: http://multi-up.com/1211238
Качество видео: WEB-DLRip
Формат файла: AVI
Видео: XviD, 720x400 (16:9), 1980 kbps, 24.000 fps, 0.286 bit/pixel
Аудио: Русский AC3, 48000 Гц, 6ch, 384 kbps

MediaInfo

ОбщееПолное имя : D:\Анатомия.измены.2018.WEBDLRip-ylnian.aviФормат файла : AVIФормат файла/Информация : Audio Video InterleaveРазмер файла : 1,46 ГбайтПродолжительность : 1 ч. 28 м.Общий поток : 2373 Кбит/секПрограмма кодирования : VirtualDubMod 1.5.10.3 | www.virtualdub-fr.org || (build 2550/release)Библиотека кодирования : VirtualDubMod build 2550/release
ВидеоИдентификатор : 0Формат файла : MPEG-4 VisualПрофиль формата : Advanced Simple@L5Настройки формата : BVOP1 / Custom MatrixПараметр BVOP формата : 1Параметр QPel формата : НетПараметр GMC формата : Без точки переходаПараметр матрицы формата : ВыборочнаяИдентификатор кодека : XVIDИдентификатор кодека/Подсказка : XviDПродолжительность : 1 ч. 28 м.Битрейт : 1980 Кбит/секШирина : 720 пикселейВысота : 400 пикселейСоотношение сторон : 16:9Частота кадров : 24,000 кадра/секЦветовое пространство : YUVСубдискретизация насыщенности : 4:2:0Битовая глубина : 8 битТип развёртки : ПрогрессивнаяМетод сжатия : С потерямиБит/(Пиксели*Кадры) : 0.286Размер потока : 1,22 Гбайт (83%)Библиотека кодирования : XviD 67
АудиоИдентификатор : 1Формат файла : AC-3Формат файла/Информация : Audio Coding 3Идентификатор кодека : 2000Продолжительность : 1 ч. 28 м.Вид битрейта : ПостоянныйБитрейт : 384 Кбит/секКаналы : 6 каналовРасположение каналов : Front: L C R, Side: L R, LFEЧастота : 48,0 КГцЧастота кадров : 31,250 кадров/сек (1536 SPF)Битовая глубина : 16 битМетод сжатия : С потерямиРазмер потока : 242 Мбайт (16%)Выравнивание : Разделение по промежуткамПродолжительность промежутка : 42 мс. (1,00 видеокадр)Время предзагрузки промежутка : 500 мс.ServiceKind/String : Complete Main


[torrentc.info]_t_5625670.torrent
Торрент: Зарегистрирован ·  [ 2018-10-10 13:51 ] ·  eb0c665cc30a959fb92884653586321f937aa882

15 KB

Статус: проверено
Скачан: 1 раз
Размер: 1.46 GB
Оценка: 
(Голосов: 0)
Сказали спасибо: 0  Спасибо
Похожие темы
[Профиль]    [ЛС]
Показать сообщения:    
Ответить на тему

Текущее время: Сегодня 13:25

Часовой пояс: GMT + 7



Вы не можете начинать темы
Вы не можете отвечать на сообщения
Вы не можете редактировать свои сообщения
Вы не можете удалять свои сообщения
Вы не можете голосовать в опросах
Вы не можете прикреплять файлы к сообщениям
Вы можете скачивать файлы