Черный 47-й / Black 47 (Лэнс Дэйли / Lance Daly) [2018, Ирландия, Люксембург, боевик, драма, WEB-DLRip-AVC] MVO (HDRezka Studio)

Ответить на тему
 
Автор Сообщение

torrentc.info

Создавать темы 10-Окт-2018 00:39

[Цитировать]

-Черный 47-й / Black 47-«In Ireland's Darkest Hour Vengeance Shines a Light»- -Страна: Ирландия, Люксембург
Жанр: боевик, драма
Год выхода: 2018
Продолжительность: 01:39:41-Перевод: Любительский (многоголосый закадровый) HDRezka Studio
Субтитры: нет
Оригинальная аудиодорожка: нет
Режиссер: Лэнс Дэйли / Lance Daly
В ролях: Хьюго Уивинг, Джеймс Фрешвилл, Стивен Ри, Фредди Фокс, Барри Кеоган, Мо Данфорд, Сара Грин, Джим Бродбент, Дермот Краули, Барри Кеоган, Руайри Хидинг-Описание: Рейнджер армии Британской империи дезертирует и возвращается домой в Ирландию и узнаёт, что когда он был в армии, в стране разразился ужасающий голод, который унёс жизнь его матери, а его брат был повешен за сопротивление сносу дома. В то же время английские джентльмены, за которых он проливал кровь в далёкой Азии, обогащаются вывозя скудный урожай пшеницы на продажу и обрекают многострадальный народ его родины на вымирание.-[img]https://rating.kinopoisk.ru/800045.gif[/img]- -Качество видео: WEB-DLRip-AVC / Black.47.2018.1080p.WEB-DL.DD5.1.H264-CMRG
Формат файла: MKV-Видео: MPEG-4 AVC, 994x414 (2.40:1), 24.000 fps, ~1744 kbps avg, 0.177 bit/pixel
Аудио: 48 kHz, AC3 Dolby Digital, 2/0 (L,R) ch, ~192 kbps avg-

MediaInfo

Complete name               : D:\Раздача\Черный 47-й (2018) WE-DLRip-AVC_ivanes20031987.mkv
Format                      : Matroska
Format version              : Version 2
File size                   : 1.38 GiB
Duration                    : 1 h 39 min
Overall bit rate            : 1 975 kb/s
Movie name                  : Черный 47-й (2018) WE-DLRip-AVC_ivanes20031987
Encoded date                : UTC 2018-10-09 14:04:56
Writing application         : mkvmerge v4.4.0 ('Die Wiederkehr') сборка от Jan  3 2011 21:40:45
Writing library             : libebml v1.0.0 + libmatroska v1.0.0
Cover                       : Yes
Attachments                 : cover.jpg
Video
ID                          : 1
Format                      : AVC
Format/Info                 : Advanced Video Codec
Format profile              : High@L4.1
Format settings, CABAC      : Yes
Format settings, RefFrames  : 10 frames
Codec ID                    : V_MPEG4/ISO/AVC
Duration                    : 1 h 39 min
Bit rate                    : 1 744 kb/s
Width                       : 994 pixels
Height                      : 414 pixels
Display aspect ratio        : 2.40:1
Frame rate mode             : Constant
Frame rate                  : 24.000 FPS
Color space                 : YUV
Chroma subsampling          : 4:2:0
Bit depth                   : 8 bits
Scan type                   : Progressive
Bits/(Pixel*Frame)          : 0.177
Stream size                 : 1.21 GiB (88%)
Title                       : Rip by ivanes20031987
Writing library             : x264 core 157 r2935 545de2f
Encoding settings           : cabac=1 / ref=10 / deblock=1:-2:-2 / analyse=0x3:0x113 / me=umh / subme=10 / psy=1 / psy_rd=1.00:0.00 / mixed_ref=1 / me_range=32 / chroma_me=1 / trellis=2 / 8x8dct=1 / cqm=0 / deadzone=21,11 / fast_pskip=0 / chroma_qp_offset=-2 / threads=12 / lookahead_threads=3 / sliced_threads=0 / nr=0 / decimate=1 / interlaced=0 / bluray_compat=0 / constrained_intra=0 / bframes=11 / b_pyramid=2 / b_adapt=2 / b_bias=0 / direct=1 / weightb=1 / open_gop=0 / weightp=2 / keyint=240 / keyint_min=24 / scenecut=40 / intra_refresh=0 / rc_lookahead=60 / rc=crf / mbtree=0 / crf=15.0 / qcomp=0.60 / qpmin=0 / qpmax=69 / qpstep=4 / vbv_maxrate=50000 / vbv_bufsize=62500 / crf_max=0.0 / nal_hrd=none / filler=0 / ip_ratio=1.40 / pb_ratio=1.30 / aq=1:1.00
Default                     : Yes
Forced                      : No
Audio
ID                          : 2
Format                      : AC-3
Format/Info                 : Audio Coding 3
Format settings, Endianness : Big
Codec ID                    : A_AC3
Duration                    : 1 h 39 min
Bit rate mode               : Constant
Bit rate                    : 192 kb/s
Channel(s)                  : 2 channels
Channel positions           : Front: L R
Sampling rate               : 48.0 kHz
Frame rate                  : 31.250 FPS (1536 SPF)
Bit depth                   : 16 bits
Compression mode            : Lossy
Stream size                 : 137 MiB (10%)
Title                       : HDRezka Studio
Language                    : Russian
Service kind                : Complete Main
Default                     : Yes
Forced                      : No

Скриншоты

[Профиль]    [ЛС]
Показать сообщения:    
Ответить на тему

Текущее время: Сегодня 04:26

Часовой пояс: GMT + 7



Вы не можете начинать темы
Вы не можете отвечать на сообщения
Вы не можете редактировать свои сообщения
Вы не можете удалять свои сообщения
Вы не можете голосовать в опросах
Вы не можете прикреплять файлы к сообщениям
Вы не можете скачивать файлы